Классический форум-трекер
canvas not supported
Нас вместе: 4 073 163

Семь кабинок (2007) DVDRip [H.264]


 
 
RSS
Начать новую тему   Ответить на тему    Торрент-трекер NNM-Club -> Отечественное кино -> Отечественные Фильмы (HD*Rip/LQ, DVDRip, SATRip, VHSRip)
Автор Сообщение
almikl ®
Куратор Детского.
Модератор Видео.
RG Всё лучшее - детям!
Uploader 500+
 
Стаж: 12 лет
Сообщений: 4553
Ratio: 315,758
Поблагодарили: 99982
100%
Откуда: Дааалекое Подмосковье
russia.gif
Семь кабинок
Производство: Россия Image
Слоган: «Не место красит человека, а человек... место»
Жанры: комедия, детектив
Продолжительность: 01:31:19

Режиссер: Дмитрий Месхиев
Сценарий: Никита Питерский
Продюсер: Дмитрий Месхиев, Валерий Тодоровский, Вадим Горяинов, ...
Оператор: Александр Демьяненко
Композитор : Святослав Курашов
Художник: Наталья Кочергина, Надежда Васильева, Тамара Воронкова, ...
Монтаж: Марина Васильева

Актеры: Фёдор Бондарчук (Диллер), Алексей Барабаш (Алеша), Сергей Козик (Штрих), Наталья Суркова (Людок), Артур Ваха (Киллер), Наталья Бурмистрова (Татьяна), Александр Яценко (Наркоман), Сергей Перегудов (Слива)


Описание: Что, казалось бы, может быть невиннее, чем женский туалет на ремонте? В его кабинках можно прятаться от суеты большого города, обсуждать любовников, пить, плакать, спать, курить и заниматься сексом… А также в нем можно прятать то, что никто не должен найти.Неизвестная красотка оставляет в туалете диск с информацией. Два гангстера приходят забрать свое и 7 кабинок в туалете модного ночного клуба становятся сценой для одного из самых неожиданных сюжетов современности.

Сборы в России: $597 831
Зрители: Россия 109.2 тыс.
Премьера (РФ): 8 февраля 2007, «Каропрокат»
Релиз группы: by almikl ®

Качество: DVDRip-AVC
Формат: MKV
Видео кодек: H.264 (AVC)
Аудио кодек: AC3, 6 ch
Видео: 720x304 (2.35:1), 25.000 fps, AVC, 1 742 Kbps
Аудио: Аудио #1: AC3, 448 Kbps, 48.0 KHz, 6 ch
Код: выделить все
General
Complete name                    : Sem' kabinok.2007.DVDRip-AVC.h264.almikl.mkv
Format                           : Matroska
File size                        : 1.40 GiB
Duration                         : 1h 31mn
Overall bit rate                 : 2 190 Kbps
Encoded date                     : UTC 2013-01-10 10:23:34
Writing application              : mkvmerge v5.8.0 ('No Sleep / Pillow') built on Sep  2 2012 15:37:04
Writing library                  : libebml v1.2.3 + libmatroska v1.3.0

Video
ID                               : 1
Format                           : AVC
Format/Info                      : Advanced Video Codec
Format profile                   : High@L4.1
Format settings, CABAC           : Yes
Format settings, ReFrames        : 6 frames
Muxing mode                      : Container profile=Unknown@4.1
Codec ID                         : V_MPEG4/ISO/AVC
Duration                         : 1h 31mn
Bit rate                         : 1 742 Kbps
Width                            : 720 pixels
Height                           : 304 pixels
Display aspect ratio             : 2.35:1
Frame rate                       : 25.000 fps
Color space                      : YUV
Chroma subsampling               : 4:2:0
Bit depth                        : 8 bits
Scan type                        : Progressive
Bits/(Pixel*Frame)               : 0.318
Stream size                      : 1.08 GiB (78%)
Writing library                  : x264 core 129 r2230 1cffe9f
Encoding settings                : cabac=1 / ref=6 / deblock=1:-1:-1 / analyse=0x3:0x113 / me=umh / subme=10 / psy=1 / psy_rd=1.00:0.15 / mixed_ref=1 / me_range=32 / chroma_me=1 / trellis=2 / 8x8dct=1 / cqm=0 / deadzone=21,11 / fast_pskip=1 / chroma_qp_offset=-3 / threads=12 / lookahead_threads=2 / sliced_threads=0 / nr=0 / decimate=1 / interlaced=0 / bluray_compat=0 / constrained_intra=0 / bframes=10 / b_pyramid=2 / b_adapt=2 / b_bias=0 / direct=1 / weightb=1 / open_gop=0 / weightp=2 / keyint=250 / keyint_min=25 / scenecut=40 / intra_refresh=0 / rc_lookahead=40 / rc=2pass / mbtree=1 / bitrate=1742 / ratetol=1.0 / qcomp=0.60 / qpmin=10 / qpmax=51 / qpstep=4 / cplxblur=20.0 / qblur=0.5 / ip_ratio=1.40 / aq=1:1.00

Audio
ID                               : 2
Format                           : AC-3
Format/Info                      : Audio Coding 3
Mode extension                   : CM (complete main)
Codec ID                         : A_AC3
Duration                         : 1h 31mn
Bit rate mode                    : Constant
Bit rate                         : 448 Kbps
Channel(s)                       : 6 channels
Channel positions                : Front: L C R, Side: L R, LFE
Sampling rate                    : 48.0 KHz
Bit depth                        : 16 bits
Stream size                      : 293 MiB (20%)
Скриншоты:


Время раздачи: 24/7, до 10 скачавших
Все релизы Семь кабинок на NNM-CLUB
[NNM-Club.me]_[NNM-Club.ru]_Sem' kabinok.2007.DVDRip-AVC.h264.almikl.mkv.torrent
 Торрент: Платиновая раздача  Зарегистрирован
 
Скачать


Примагнититься
 Зарегистрирован:   11 Янв 2019 08:30:15
 Размер:   1,4 GB  (
 Рейтинг:   4 (Голосов: 82)
 Поблагодарили:   373
 Проверка:   Оформление проверено модератором 11 Янв 2019 08:31:20
Как cкачать  ·  Как раздать  ·  Правильно оформить  ·  Поднять ратио!  
miamia
Стаж: 9 лет 9 мес.
Сообщений: 537
Ratio: 10,925
Раздал: 49,67 TB
100%
Откуда: Ростов-на-Дону
ussr.gif
:D для нормальных людей заниматься этим в вонючих сортирах и на мусорниках недопустимо.но если от самого рождения мамы упорно выгуливают младенцев в нескольких шагах от мусоросборников .детство тоже возле мусорных баков отрочество на лестничных площадках у мусоросборников где и писают и какают и влюбляются и размножаются.не удивительно что в мозгу произошла фиксация понятия родины как у рыбок птичек и пр. по запаху.хорошо бы беременных мам отправлять в самые прекрасные места природы на несколько лет тогда фиксация у детей в мозгу будет правильной.
andiar
Стаж: 8 лет 4 мес.
Сообщений: 44
Ratio: 1,009
100%
pirates.png
фильм супер!
almikl ®
Куратор Детского.
Модератор Видео.
RG Всё лучшее - детям!
Uploader 500+
 
Стаж: 12 лет
Сообщений: 4553
Ratio: 315,758
Поблагодарили: 99982
100%
Откуда: Дааалекое Подмосковье
russia.gif
Отреставрировано.
Johny Walker
Только чтение
Стаж: 5 лет 4 мес.
Сообщений: 43
Ratio: 7,393
0%
Откуда: Slavyansk
ukraine.gif
На удивление любопытный закос под Тарантино. Местами, конечно, бредятина, но разок глянуть вполне можно. Актеры интересно играют.
herezad
Стаж: 8 лет
Сообщений: 2113
Ratio: 24,274
Поблагодарили: 47504
100%
Наконец-то !Дядя фёдор нашёл своё "место"в киноиндустрии! (Возле параши)

_________________
Мы не бандиты! Мы - Благородные Пираты! :стрельба:
В связи с санкциями, всё скаченное считать трофеем!
Raystlene
Стаж: 4 года 6 мес.
Сообщений: 153
Ratio: 9,301
1.91%
Поддерживаю.
herezad писал(а): Перейти к сообщению
Наконец-то !Дядя фёдор нашёл своё "место"в киноиндустрии! (Возле параши)
LiLOF
Талант
Стаж: 6 лет 3 мес.
Сообщений: 848
Ratio: 0,968
Поблагодарили: 9
0.15%
Оказывается я пропустил этот фильм 10 лет назад.. Актеры еще молоды.
ab_box
Стаж: 7 лет 11 мес.
Сообщений: 23
Ratio: 9,092
100%
Откуда: Алания
witch.png
Один из лучших отечественных фильмов в стиле Гая Ричи и Тарантино ! Абсолютно незаслуженно обойден вниманием. 10 из 10 !
Показать сообщения:   
Начать новую тему   Ответить на тему    Торрент-трекер NNM-Club -> Отечественное кино -> Отечественные Фильмы (HD*Rip/LQ, DVDRip, SATRip, VHSRip) Часовой пояс: GMT + 3
Страница 1 из 1