Классический форум-трекер
canvas not supported
Нас вместе: 4 069 079

Облачно, возможны осадки: Месть ГМО / Cloudy with a Chance of Meatballs 2 (2013) HDRip [Line]


 
 
RSS
Начать новую тему   Ответить на тему    Торрент-трекер NNM-Club -> Архив торрентов -> Архив Мультфильмов
Автор Сообщение
MR Sergei ®
Uploaders 100+
 

Online
Стаж: 6 лет 6 мес.
Сообщений: 3034
Ratio: 33K
Раздал: 297,1 TB
Поблагодарили: 544401
100%
Откуда: ЛНР, Краснодон
russia.gif
Облачно, возможны осадки: Месть ГМО / Cloudy with a Chance of Meatballs 2 (2013) HDRip [Line]
Год выпуска: 2013
Производство: США, Columbia Pictures, Sony Pictures Animation, Sony Pictures
Жанр: Фэнтези, Комедия, Семейный

Дата мировой премьеры: 26 сентября 2013
Дата российской премьеры: 24 октября 2013, «WDSSPR»
Дата выхода DVD релиза: 11 февраля 2014, «Columbia/Sony»

Описание:
Все жители острова Поплавок покинули родной дом после событий предыдущего мультфильма. Главный герой Флинт Локвуд теперь работает в компании The Live Corp на своего кумира Честера. Но ему придется оставить свой пост когда он узнает, что его печально-известная машина все ещё работает и производит на свет опасных гибридов. Флинту предстоит ещё раз спасти мир и не дать коварной машине распространить громадную еду по всему миру.


Режиссер: Коуди Камерон, Крис Пирн
Продюсер: Кирк Бодифелт, Крис Джун, Фил Лорд
Персонажи: Билл Хейдер, Анна Фэрис, Джеймс Каан, Уилл Форте, Энди Сэмберг, Бенджамин Брэтт, Нил Патрик Харрис, Терри Крюс, Кристен Шол, Коуди Камерон

Продолжительность: 01:34:49
Качество видео: HDRip
Перевод: Дублированный [Чистый звук]
Вид субтитров: Отсутствуют

Видеокодек: Xvid
Битрейт видео: ~1742 Кбит/с
Размер кадра: 720x304
Аудиокодек: AC3 5.1
Битрейт аудио: 448 kb/s
Сэмпл: Ссылка
Общее
Полное имя : D:\Oblachno.Mest.GMO.2013.D.HDRip.1400MB.avi
Формат : AVI
Формат/Информация : Audio Video Interleave
Размер файла : 1,46 Гбайт
Продолжительность : 1 ч. 34 м.
Общий поток : 2199 Кбит/сек
Программа кодирования : VirtualDubMod 1.5.10.2 (build 2540/release)
Библиотека кодирования : VirtualDubMod build 2540/release

Видео
Идентификатор : 0
Формат : MPEG-4 Visual
Профиль формата : Advanced Simple@L5
Параметр BVOP формата : 2
Параметр QPel формата : Нет
Параметр GMC формата : Без точки перехода
Параметр матрицы формата : Выборочная
Идентификатор кодека : XVID
Идентификатор кодека/Подсказка : XviD
Продолжительность : 1 ч. 34 м.
Битрейт : 1742 Кбит/сек
Ширина : 720 пикселей
Высота : 304 пикселя
Соотношение сторон : 2,35:1
Частота кадров : 23,976 кадра/сек
Цветовое пространство : YUV
Субдискретизация насыщенности : 4:2:0
Битовая глубина : 8 бит
Тип развёртки : Прогрессивная
Метод сжатия : С потерями
Бит/(Пиксели*Кадры) : 0.332
Размер потока : 1,15 Гбайт (79%)
Библиотека кодирования : XviD 1.2.1 (UTC 2008-12-04)

Аудио
Идентификатор : 1
Формат : AC-3
Формат/Информация : Audio Coding 3
Расширение режима : CM (complete main)
Параметр Endianness формата : Big
Идентификатор кодека : 2000
Продолжительность : 1 ч. 34 м.
Вид битрейта : Постоянный
Битрейт : 448 Кбит/сек
Каналы : 6 каналов
Расположение каналов : Front: L C R, Side: L R, LFE
Частота : 48,0 КГц
Битовая глубина : 16 бит
Метод сжатия : С потерями
Размер потока : 304 Мбайт (20%)
Выравнивание : Разделение по промежуткам
Продолжительность промежутка : 42 мс. (1,00 видеокадр)
Время предзагрузки промежутка : 500 мс.
Скриншоты:



Время раздачи: 24/7
(до 5 скачавших)

Облачно, возможны осадки: Месть ГМО на NoNaMe Club
[NNM-Club.me]_Oblachno.Mest.GMO.2013.D.HDRip.1400MB.torrent
 Торрент: Платиновая раздача  Зарегистрирован
 
Скачать


Примагнититься
 Зарегистрирован:   15 Янв 2014 17:14:59
 Размер:   1,46 GB  (
 Рейтинг:   4,8 (Голосов: 123)
 Поблагодарили:   604
 Проверка:   Оформление проверено модератором 15 Янв 2014 20:55:33
Как cкачать  ·  Как раздать  ·  Правильно оформить  ·  Поднять ратио!  
Naranek
Стаж: 6 лет 9 мес.
Сообщений: 166
Ratio: 39,791
100%
russia.gif
Судя по сэмплу, звук не очень хороший. Звук прыгает... заглушается и снова высокий. Подожду еще.
Vabe
Стаж: 8 лет 2 мес.
Сообщений: 3
Ratio: 15,419
50.59%
Качество отличное,спасибо
CTuKC_39
Стаж: 9 лет 6 мес.
Сообщений: 250
Ratio: 1,152
Поблагодарили: 84
100%
russia.gif
у меня сэмпл будет качаться долще чем мульт, скачаю мульт сразу :-/
Akazaki
Стаж: 6 лет 6 мес.
Сообщений: 41
Ratio: 2,403
100%
Звук плавает.
maxcash1
Стаж: 5 лет 6 мес.
Сообщений: 34
Мультик яркий, детям очень нравится) автору спасибо

_________________

Внутренняя свобода есть способность духа самостоятельно увидеть верный закон, самостоятельно признать авторитетную силу осуществить его в жизни.
seanro
Стаж: 7 лет 10 мес.
Сообщений: 4
Ratio: 10,225
0.28%
качество 720p?
диарх
Стаж: 8 лет 1 мес.
Сообщений: 142
Ratio: 14,239
68.7%
russia.gif
огромное спасибо
Parazyte
Стаж: 9 лет 7 мес.
Сообщений: 12
Ratio: 33,284
100%
belarus.gif
Классный фильм для всей семьи. Рекомендую.
Топик был перенесен из форума Зарубежные Мультфильмы (HD*Rip/LQ, DVDRip, SATRip, VHSRip) в форум Архив Мультфильмов

Причина переноса: http://nnmclub.to/forum/viewtopic.php?t=753659

Исправил релиз - напиши ЛС almikl, дав ссылку на релиз.
Если нет ответа 24 часа - нажми на кнопку "Обратить внимание модераторов".
plotinas
Стаж: 6 лет 8 мес.
Сообщений: 14
Ratio: 202,825
100%
обе части дети смотрели на ура! спасибо
Показать сообщения:   
Начать новую тему   Ответить на тему    Торрент-трекер NNM-Club -> Архив торрентов -> Архив Мультфильмов Часовой пояс: GMT + 3
Страница 1 из 1