Классический форум-трекер
canvas not supported
Нас вместе: 4 084 110
Платим за отзывы

Зови меня своим именем / Call Me by Your Name (2017) BDRip [H.264/1080p] [EN / CH Sub]


 
 
RSS
Начать новую тему   Ответить на тему    Торрент-трекер NNM-Club -> Зарубежное кино -> Фильмы в оригинале (HD, UHD, UHD-LQ)
Автор Сообщение
smaster67 ®
Модератор Видео
Покровитель талантов Uploader 300+
Стаж: 10 лет 5 мес.
Сообщений: 7117
Ratio: 223,717
Поблагодарили: 215518
100%
Зови меня своим именем / Call Me by Your Name (2017) BDRip [H.264/1080p] [EN / CH Sub]

Производство: Италия, Франция, Бразилия, США / Frenesy Film Company, La Cinéfacture, RT Features, Water's End Productions, M.Y.R.A. Entertainment, Ministero dei Beni e delle Attivita Culturali e del Turismo (MiBACT), Lombardia Film Commission
Жанр: драма, мелодрама

Режиссер: Лука Гуаданьино
Актеры: Арми Хаммер, Амира Касар, Майкл Стулбарг, Елена Буччи, Виктуар Ду Бойс, Эстер Гаррел, Тимоти Чаламет

Описание:
1983 год, Италия. Элио семнадцать, и это лето он проводит на вилле у родителей, американского профессора и переводчицы-итальянки. Юноша c детства начитанный и любознательный, Элио разбавляет обычные летние занятия вроде купания в море и ленивого флирта с подругой Марцией чтением и транскрибированием классической музыки. В один прекрасный день, впрочем, безмятежность летнего отдыха нарушает приезд Оливера - молодого американского учёного, ассистента отца Элио.


Возраст: 18+ (зрителям, достигшим 18 лет. запрещено для детей)
Рейтинг MPAA: R (лицам до 17 лет обязательно присутствие взрослого)

Продолжительность: 02:12:00
Качество видео: BDRip
Перевод: Отсутствует
Язык озвучки: Английский
Субтитры: китайские

Видео: AVC, 1920x1036 (1.85:1), 15030 kbps, 23.976 fps, 0.315 bpp
Аудио: английский / DTS / 5.1 / 48 kHz / 1509 kbps / 24 bit
Код: выделить все
General
Unique ID                               Call.Me.by.Your.Name.2017.BluRay.1080p.DTS.x264-[NNM-Club.me].mkv
Format                                   : Matroska
Format version                           : Version 4 / Version 2
File size                                : 15.3 GiB
Duration                                 : 2 h 12 min
Overall bit rate                         : 16.6 Mb/s
Encoded date                             : UTC 2018-03-03 04:34:50
Writing application                      : mkvmerge v10.0.0 ('To Drown In You') 64bit
Writing library                          : libebml v1.3.4 + libmatroska v1.4.5

Video
ID                                       : 1
Format                                   : AVC
Format/Info                              : Advanced Video Codec
Format profile                           : High@L4.1
Format settings, CABAC                   : Yes
Format settings, ReFrames                : 4 frames
Codec ID                                 : V_MPEG4/ISO/AVC
Duration                                 : 2 h 12 min
Bit rate                                 : 15.0 Mb/s
Width                                    : 1 920 pixels
Height                                   : 1 036 pixels
Display aspect ratio                     : 1.85:1
Frame rate mode                          : Constant
Frame rate                               : 23.976 (24000/1001) FPS
Color space                              : YUV
Chroma subsampling                       : 4:2:0
Bit depth                                : 8 bits
Scan type                                : Progressive
Bits/(Pixel*Frame)                       : 0.315
Stream size                              : 13.9 GiB (91%)
Writing library                          : x264 core 149 r2771+45 509cceb 7mod [8-bit@all X86_64]
Encoding settings                        : cabac=1 / ref=4 / deblock=1:-3:-3 / analyse=0x3:0x113 / me=umh / subme=10 / psy=1 / fade_compensate=0.00 / psy_rd=0.90:0.10 / mixed_ref=1 / me_range=48 / chroma_me=1 / trellis=2 / 8x8dct=1 / cqm=0 / deadzone=21,11 / fast_pskip=0 / chroma_qp_offset=-2 / threads=12 / lookahead_threads=2 / sliced_threads=0 / nr=0 / decimate=1 / interlaced=0 / bluray_compat=0 / constrained_intra=0 / fgo=0 / bframes=8 / b_pyramid=2 / b_adapt=2 / b_bias=0 / direct=3 / weightb=1 / open_gop=0 / weightp=2 / keyint=250 / keyint_min=23 / scenecut=40 / intra_refresh=0 / rc_lookahead=40 / rc=crf / mbtree=0 / crf=21.0000 / qcomp=0.70 / qpmin=0:0:0 / qpmax=69:69:69 / qpstep=4 / vbv_maxrate=35000 / vbv_bufsize=35000 / crf_max=0.0 / nal_hrd=none / filler=0 / ip_ratio=1.40 / pb_ratio=1.30 / aq=3:1.00 / aq-sensitivity=10.00 / aq-factor=1.00:1.00:1.00 / aq2=0 / aq3=2:[0.50:0.50]:[0.50:0.50]:[0.50:0.50]:[0.50:0.50] / aq3-sensitivity=10.00 / aq3-factor=[1.00:1.00]:[1.00:1.00]:[1.00:1.00] / aq3-boundary=192:64:24
Language                                 : English
Default                                  : Yes
Forced                                   : No
Color range                              : Limited
Matrix coefficients                      : BT.709

Audio
ID                                       : 2
Format                                   : DTS
Format/Info                              : Digital Theater Systems
Mode                                     : 16
Format settings, Endianness              : Big
Codec ID                                 : A_DTS
Duration                                 : 2 h 12 min
Bit rate mode                            : Constant
Bit rate                                 : 1 509 kb/s
Channel(s)                               : 6 channels
Channel positions                        : Front: L C R, Side: L R, LFE
Sampling rate                            : 48.0 kHz
Frame rate                               : 93.750 FPS (512 spf)
Bit depth                                : 24 bits
Compression mode                         : Lossy
Stream size                              : 1.39 GiB (9%)
Language                                 : English
Default                                  : Yes
Forced                                   : No

Text #1
ID                                       : 3
Format                                   : PGS
Muxing mode                              : zlib
Codec ID                                 : S_HDMV/PGS
Codec ID/Info                            : Picture based subtitle format used on BDs/HD-DVDs
Duration                                 : 2 h 9 min
Bit rate                                 : 7 878 b/s
Count of elements                        : 2226
Stream size                              : 7.28 MiB (0%)
Language                                 : Chinese
Default                                  : Yes
Forced                                   : No

Text #2
ID                                       : 4
Format                                   : PGS
Muxing mode                              : zlib
Codec ID                                 : S_HDMV/PGS
Codec ID/Info                            : Picture based subtitle format used on BDs/HD-DVDs
Duration                                 : 2 h 9 min
Bit rate                                 : 8 097 b/s
Count of elements                        : 2206
Stream size                              : 7.48 MiB (0%)
Language                                 : Chinese
Default                                  : No
Forced                                   : No

Text #3
ID                                       : 5
Format                                   : PGS
Muxing mode                              : zlib
Codec ID                                 : S_HDMV/PGS
Codec ID/Info                            : Picture based subtitle format used on BDs/HD-DVDs
Duration                                 : 2 h 8 min
Bit rate                                 : 7 335 b/s
Count of elements                        : 2082
Stream size                              : 6.74 MiB (0%)
Language                                 : Chinese
Default                                  : No
Forced                                   : No

Скриншоты:



Все одноименные релизы в Клубе

Время раздачи: с 13:00 до 23:00
[NNM-Club.me]_Call.Me.by.Your.Name.2017.BluRay.1080p.DTS.x264-[NNM-Club.me].mkv.torrent
 Торрент: Платиновая раздача  Зарегистрирован
 
Скачать


Примагнититься
 Зарегистрирован:   04 Мар 2018 21:54:34
 Размер:   15,3 GB  (
 Рейтинг:   4,6 (Голосов: 11)
 Поблагодарили:   40
 Проверка:   Оформление проверено модератором 04 Мар 2018 21:58:08
Как cкачать  ·  Как раздать  ·  Правильно оформить  ·  Поднять ратио!  
Loading...
Machete
Стаж: 10 лет 9 мес.
Сообщений: 13
Ratio: 11,154
39.44%
russia.gif
А англ. субтитров нет ? :(
Юлиятрикс
Стаж: 3 года 5 мес.
Сообщений: 9
100%
Откуда: :POLSKA: #Радужная​Гвардия​
poland.gif
Если верить MI , то никаких Англ. Сабов тут нет .
Но не беда , в интернете найти их на этот фильм дело пустяковое .

Спасибо за раздачу прекрасного фильма! : )

_________________
masazumi
 
Стаж: 7 лет 10 мес.
Сообщений: 30
Ratio: 3,322
100%
фу [однако] [редиска]
Показать сообщения:   
Начать новую тему   Ответить на тему    Торрент-трекер NNM-Club -> Зарубежное кино -> Фильмы в оригинале (HD, UHD, UHD-LQ) Часовой пояс: GMT + 3
Страница 1 из 1