Классический форум-трекер
canvas not supported
Нас вместе: 4 077 082

Жил был пёс (1982) DVDRip


Страницы:   Пред.  1, 2 
 
RSS
Начать новую тему   Ответить на тему    Торрент-трекер NNM-Club -> Мультфильмы -> Отечественные Мультфильмы для детей
Автор Сообщение
Shustroff ®
Стаж: 8 лет 4 мес.
Сообщений: 202
Ratio: 69,23
Поблагодарили: 18726
100%
Откуда: Odessa
Жил был пёс (1982) DVDRip
Сы-пасибо!.. Ты заходи, если что...
Жанр: Рисованная анимация, Детский, Комедия

Режиссер: Эдуард Назаров
Персонажи: Георгий Бурков (Пёс), Армен Джигарханян (Волк)

Описание:
По мотивам украинской сказки о дружбе стариков Пса и Волка. Настал день, когда пожилой сторожевой пёс становится обузой, и хозяева прогоняют его со двора.
Дело происходит в украинском селе. Все персонажи выписаны с гоголевской образностью и сочностью, неподражаемым юмором и вниманием к деталям.
Очень добрый и удивительно мудрый и поучительный мультфильм.


Продолжительность: 00:10:00
Качество видео: DVDRip

Видеокодек: Xvid
Битрейт видео: ~25 fps, XviD MPEG-4 ~2386 kbps avg, 0.26 bit/pixel
Размер кадра: 704x528 (1.33:1)
Аудиокодек: AC3 2.0
Битрейт аудио: 48 kHz, AC3 Dolby Digital, 2/0 (L,R) ch, ~192 kbps
— Бог в помощь... Ты что – по деревьям лазишь?
— Да вот... птичку хотел.

— А помнишь, как ты меня гонял?
— Так я ведь...
— Ага. Работа такая... Теперь – как я.

— Дитё не помял?!
— Да что ему сделается?..

— Шас спою!.. … А теперь – точно спою!

— Сы-пасибо!.. Ты заходи, если что...
Формат : AVI
Формат/Информация : Audio Video Interleave
Размер файла : 185 Мбайт
Продолжительность : 10 м.
Общий поток : 2589 Кбит/сек
Программа кодирования : VirtualDubMod 1.5.10.2 (build 2540/release)
Библиотека кодирования : VirtualDubMod build 2540/release

Видео
Идентификатор : 0
Формат : MPEG-4 Visual
Профиль формата : Advanced Simple@L5
Параметр BVOP формата : 2
Параметр QPel формата : Нет
Параметр GMC формата : Без точки перехода
Параметр матрицы формата : Default (H.263)
Режим смешивания : Сжатый битовый поток
Идентификатор кодека : XVID
Идентификатор кодека/Подсказка : XviD
Продолжительность : 10 м.
Битрейт : 2387 Кбит/сек
Ширина : 704 пикселя
Высота : 528 пикселей
Соотношение сторон : 4:3
Частота кадров : 25,000 кадров/сек
Цветовое пространство : YUV
Субдискретизация насыщенности : 4:2:0
Битовая глубина : 8 бит
Тип развёртки : Прогрессивная
Метод сжатия : С потерями
Бит/(Пиксели*Кадры) : 0.257
Размер потока : 171 Мбайт (92%)
Библиотека кодирования : XviD 1.2.1 (UTC 2008-12-04)

Аудио
Идентификатор : 1
Формат : AC-3
Формат/Информация : Audio Coding 3
Расширение режима : CM (complete main)
Идентификатор кодека : 2000
Продолжительность : 10 м.
Вид битрейта : Постоянный
Битрейт : 192 Кбит/сек
Каналы : 2 канала
Расположение каналов : Front: L R
Частота : 48,0 КГц
Битовая глубина : 16 бит
Метод сжатия : С потерями
Размер потока : 13,7 Мбайт (7%)
Выравнивание : Разделение по промежуткам
Продолжительность промежутка : 40 мс. (1,00 видеокадр)
Время предзагрузки промежутка : 500 мс.
Скриншоты:




Время раздачи: До первых сидов
[NNM-Club.ru]_Zhil-bil_Pes.torrent
 Торрент: Платиновая раздача  Зарегистрирован
 
Скачать


Примагнититься
 Зарегистрирован:   23 Апр 2012 12:22:18
 Размер:   185 MB  (
 Рейтинг:   5 (Голосов: 441)
 Поблагодарили:   1529
 Проверка:   Оформление проверено модератором 23 Апр 2012 15:35:31
Как cкачать  ·  Как раздать  ·  Правильно оформить  ·  Поднять ратио!  
-BEST-
ИгроКлуб
Стаж: 8 лет 8 мес.
Сообщений: 447
Ratio: 23,914
100%
russia.gif
Неумирающий мультик !
starfox521
 
Стаж: 6 лет 8 мес.
Сообщений: 262
Ratio: 6,43
99.68%
Откуда: Орел
ussr.gif
Классный мульт !!! Спасибо !
sergepukov
Стаж: 8 лет 7 мес.
Сообщений: 37
Ratio: 3,175
0.5%
rn3qmo2 писал(а): Перейти к сообщению
Плохо!!!! Там,где волк должен сказать "шо, выгнали"? политкорректно врезано "нуу..выгнали". Это неправильно и портит даже все последующее ..


"Шо, выгнали" в эпизоде с веревкой - он никогда и не говорил... посмотрите старые версии.
monamax245
Стаж: 8 лет 9 мес.
Сообщений: 395
Ratio: 1,35
100%
ecuador.gif
шикарный мульт
Nurim
Стаж: 10 лет 3 мес.
Сообщений: 737
Ratio: 2,842
100%
Откуда: Almaty
kazakhstan.gif
Рейтинг занижен.
flybreeze
Стаж: 8 лет 5 мес.
Сообщений: 23
Ratio: 2,971
58.54%
russia.gif
Вечные:
"Щасс спою!"
"Ты заходи, если что!"
asd020
Стаж: 6 лет
Сообщений: 3
Ratio: 1,845
5.86%
до слез :плач:
listoboy
Стаж: 5 лет 4 мес.
Сообщений: 3
Ratio: 45,895
100%
Такое ощущение, что кадры подрезаны? Особенно встреча пса и волка в лесу. Раздающему ещё раз «Сы-па-си-ба!».
Показать сообщения:   
Начать новую тему   Ответить на тему    Торрент-трекер NNM-Club -> Мультфильмы -> Отечественные Мультфильмы для детей Часовой пояс: GMT + 3
Страницы:   Пред.  1, 2
Страница 2 из 2