Интеллигентный торрент-трекер
canvas not supported
Нас вместе: 4 340 281

Звёздные войны: Пробуждение силы / Star Wars: Episode VII - The Force Awakens (2015) BDRip [H.264/1080p] [Line]


Страницы:   Пред.  1, 2, 3, 4, 5, 6, 7 
 
RSS
Начать новую тему   Ответить на тему    Торрент-трекер NNM-Club -> Архив торрентов -> Архив Видео
Автор Сообщение
batonchik ®
Зам. Куратора Видео
RG Releasers
Котоаплоадер 4000+
 
Стаж: 9 лет 4 мес.
Сообщений: 23517
Ratio: 226K
Раздал: 5,0274 PB
Поблагодарили: 851502
100%
Откуда: из лесу
ussr.gif
Звёздные войны: Пробуждение силы / Star Wars: Episode VII - The Force Awakens (2015) BDRip [H.264]
Производство: США, Bad Robot, Lucasfilm Ltd., Truenorth Productions
Жанр: фантастика, фэнтези, боевик, приключения

Режиссер: Джей Джей Абрамс
Актеры: Джон Бойега, Дэйзи Ридли, Оскар Айзек, Адам Драйвер, Донал Глисон, Харрисон Форд, Марк Хэмилл, Кэрри Фишер, Макс фон Сюдов, Энди Серкис, Лупита Нионго, Энтони Дэниелс

Описание:
Через тридцать лет после гибели Дарта Вейдера и Императора галактика по-прежнему в опасности. Государственное образование Первый Орден во главе с их таинственным верховным лидером Сноуком и его правой рукой Кайло Реном идёт по стопам Империи, пытаясь захватить всю власть. В это нелёгкое время судьба сводит юную девушку Рей и бывшего штурмовика Первого Ордена Финна с героями времён войны с Империей - Ханом Соло, Чубаккой и генералом Леей. Вместе они должны дать бой Первому Ордену, однако настаёт тот момент, когда становится очевидно, что лишь джедаи могут остановить Сноука и Кайло Рена. И в галактике в живых остаётся только один...


Дата мировой премьеры: 14 декабря 2015
Дата премьеры в России: 17 декабря 2015 «WDSSPR» 3D

Возраст: 12+ (зрителям, достигшим 12 лет)
Рейтинг MPAA: PG-13 (детям до 13 лет просмотр нежелателен)

Релиз от: NNM-CLUB
Продолжительность: 02:18:06
Качество видео: BDRip (batonchik)
Перевод: Дублированный (чистый звук)
Язык субтитров: Русский (полные), английский
Вид субтитров: вшитые, отключаемые

Видео: AVC, 10676 kbps, 1920x800, 23.976 fps, 2,40:1, High Profile 4.1
Аудио 1: AC3, 2.0 ch, 384 kbps | Русский дубляж
Аудио 2: DTS, 5.1 ch, 1509 kbps | Английский
Аудио 3: AC3, 5.1 ch, 640 kbps | Русский дубляж без рекламы (сборка от WetY) ОТДЕЛЬНО! можно скачать ЗДЕСЬ!
Реклама: Удалил 5 вставок голосовой рекламы!
Общее
Полное имя : \Звёздные войны_Пробуждение силы.2015.BDRip.1080p.H.264.Rus.Eng.NNM-CLUB.mkv
Формат : Matroska
Версия формата : Version 2
Размер файла : 12,1 Гбайт
Продолжительность : 2 ч. 18 м.
Общий поток : 12,6 Мбит/сек
Название фильма : Звёздные войны_Пробуждение силы.2015.BDRip.1080p.H.264.Rus.Eng.NNM-CLUB
Дата кодирования : UTC 2016-03-25 10:54:10
Программа кодирования : mkvmerge v7.7.0 ('Six Voices') 64bit built on Feb 28 2015 23:39:33
Библиотека кодирования : libebml v1.3.1 + libmatroska v1.4.2

Видео
Идентификатор : 1
Формат : AVC
Формат/Информация : Advanced Video Codec
Профиль формата : High@L4.1
Параметр CABAC формата : Да
Параметр ReFrames формата : 4 кадра
Идентификатор кодека : V_MPEG4/ISO/AVC
Продолжительность : 2 ч. 18 м.
Битрейт : 10,7 Мбит/сек
Ширина : 1920 пикселей
Высота : 800 пикселей
Соотношение сторон : 2,40:1
Режим частоты кадров : Постоянный
Частота кадров : 23,976 (24000/1001) кадра/сек
Цветовое пространство : YUV
Субдискретизация насыщенности : 4:2:0
Битовая глубина : 8 бит
Тип развёртки : Прогрессивная
Бит/(Пиксели*Кадры) : 0.290
Размер потока : 10,1 Гбайт (83%)
Заголовок : Звёздные войны_Пробуждение силы.2015.BDRip.1080p.H.264.Rus.Eng.NNM-CLUB
Библиотека кодирования : x264 core 148 r2638 7599210
Настройки программы : cabac=1 / ref=4 / deblock=1:-3:-3 / analyse=0x3:0x133 / me=umh / subme=11 / psy=1 / psy_rd=1.00:0.15 / mixed_ref=1 / me_range=24 / chroma_me=1 / trellis=2 / 8x8dct=1 / cqm=0 / deadzone=21,11 / fast_pskip=0 / chroma_qp_offset=-3 / threads=12 / lookahead_threads=2 / sliced_threads=0 / nr=0 / decimate=1 / interlaced=0 / bluray_compat=0 / constrained_intra=0 / bframes=8 / b_pyramid=2 / b_adapt=2 / b_bias=0 / direct=3 / weightb=1 / open_gop=0 / weightp=2 / keyint=250 / keyint_min=23 / scenecut=40 / intra_refresh=0 / rc_lookahead=40 / rc=2pass / mbtree=1 / bitrate=10676 / ratetol=1.0 / qcomp=0.60 / qpmin=0 / qpmax=69 / qpstep=4 / cplxblur=20.0 / qblur=0.5 / vbv_maxrate=50000 / vbv_bufsize=62500 / nal_hrd=none / filler=0 / ip_ratio=1.40 / aq=1:0.70
Язык : English
Default : Да
Forced : Нет
Цветовой диапазон : Limited
Коэффициенты матрицы : BT.709

Аудио #1
Идентификатор : 2
Формат : AC-3
Формат/Информация : Audio Coding 3
Расширение режима : CM (complete main)
Параметр Endianness формата : Big
Идентификатор кодека : A_AC3
Продолжительность : 2 ч. 18 м.
Вид битрейта : Постоянный
Битрейт : 384 Кбит/сек
Каналы : 2 канала
Расположение каналов : Front: L R
Частота : 48,0 КГц
Частота кадров : 31,250 кадров/сек (1536 spf)
Метод сжатия : С потерями
Размер потока : 379 Мбайт (3%)
Заголовок : Дубляж (без рекламы)
Язык : Russian
Default : Да
Forced : Нет

Аудио #2
Идентификатор : 3
Формат : DTS
Формат/Информация : Digital Theater Systems
Режим : 16
Параметр Endianness формата : Big
Идентификатор кодека : A_DTS
Продолжительность : 2 ч. 18 м.
Вид битрейта : Постоянный
Битрейт : 1509 Кбит/сек
Каналы : 6 каналов
Расположение каналов : Front: L C R, Side: L R, LFE
Частота : 48,0 КГц
Частота кадров : 93,750 кадра/сек (512 spf)
Битовая глубина : 24 бит
Метод сжатия : С потерями
Размер потока : 1,46 Гбайт (12%)
Язык : English
Default : Нет
Forced : Нет

Текст #1
Идентификатор : 4
Формат : UTF-8
Идентификатор кодека : S_TEXT/UTF8
Идентификатор кодека/Информация : UTF-8 Plain Text
Язык : Russian
Default : Нет
Forced : Нет

Текст #2
Идентификатор : 5
Формат : UTF-8
Идентификатор кодека : S_TEXT/UTF8
Идентификатор кодека/Информация : UTF-8 Plain Text
Язык : English
Default : Нет
Forced : Нет

Меню
00:00:00.000 : en:Chapter 01
00:00:09.259 : en:Chapter 02
00:01:43.061 : en:Chapter 03
00:03:51.856 : en:Chapter 04
00:06:12.288 : en:Chapter 05
00:09:33.948 : en:Chapter 06
00:10:43.559 : en:Chapter 07
00:12:35.713 : en:Chapter 08
00:13:39.693 : en:Chapter 09
00:14:48.220 : en:Chapter 10
00:16:45.921 : en:Chapter 11
00:18:04.583 : en:Chapter 12
00:19:21.535 : en:Chapter 13
00:21:26.618 : en:Chapter 14
00:24:03.650 : en:Chapter 15
00:26:47.022 : en:Chapter 16
00:29:54.667 : en:Chapter 17
00:31:49.324 : en:Chapter 18
00:35:51.774 : en:Chapter 19
00:36:40.615 : en:Chapter 20
00:37:45.513 : en:Chapter 21
00:40:19.250 : en:Chapter 22
00:43:39.199 : en:Chapter 23
00:45:29.560 : en:Chapter 24
00:49:22.918 : en:Chapter 25
00:51:19.951 : en:Chapter 26
00:54:13.750 : en:Chapter 27
00:59:48.793 : en:Chapter 28
01:04:16.060 : en:Chapter 29
01:08:37.238 : en:Chapter 30
01:11:07.221 : en:Chapter 31
01:15:16.386 : en:Chapter 32
01:16:49.896 : en:Chapter 33
01:19:37.522 : en:Chapter 34
01:20:56.893 : en:Chapter 35
01:25:36.172 : en:Chapter 36
01:32:12.568 : en:Chapter 37
01:35:29.014 : en:Chapter 38
01:36:34.955 : en:Chapter 39
01:39:28.629 : en:Chapter 40
01:41:29.958 : en:Chapter 41
01:42:57.504 : en:Chapter 42
01:45:00.002 : en:Chapter 43
01:50:33.710 : en:Chapter 44
01:53:39.771 : en:Chapter 45
01:55:22.165 : en:Chapter 46
01:58:05.453 : en:Chapter 47
02:01:05.591 : en:Chapter 48
02:02:32.678 : en:Chapter 49
02:07:07.578 : en:Chapter 50
Скриншоты:


Время раздачи: 24/7
Zvezdnyie voynyi_Probuzhdenie silyi.2015.BDRip.1080p.H.264.Rus.Eng.NNM-CLUB.mkv.torrent
 Торрент: Платиновая раздача  Зарегистрирован
 
Примагнититься

Скачать
 Зарегистрирован:   25 Мар 2016 14:06:33
 Размер:   12,1 GB  (
 Рейтинг:   4,7 (Голосов: 590)
 Поблагодарили:   2486
 Проверка:   Оформление проверено модератором 25 Мар 2016 14:18:44
Как cкачать  ·  Как раздать  ·  Правильно оформить  ·  Поднять ратио!  
ST5734
Стаж: 2 года 11 мес.
Сообщений: 157
Ratio: 2,142
14.09%
Carrie Fisher, умерла :(
Показать сообщения:   
Начать новую тему   Ответить на тему    Торрент-трекер NNM-Club -> Архив торрентов -> Архив Видео Часовой пояс: GMT + 3
Страницы:   Пред.  1, 2, 3, 4, 5, 6, 7
Страница 7 из 7