Классический форум-трекер
canvas not supported
Нас вместе: 4 101 870

E-Mantra | Night Hex - Discography 28 Releases (2008-2020) [FLAC|Lossless|tracks+.cue, tracks] <Goa Trance, Psybient, Ambient, Downtempo>


 
 
RSS
Начать новую тему   Ответить на тему    Торрент-трекер NNM-Club -> Electronic -> Psychedelic, psytrance, fullon (Lossless)
Автор Сообщение
vilator ®
Модератор Музыки
RG Music
 
Стаж: 10 лет 11 мес.
Сообщений: 10201
Ratio: 254,204
Поблагодарили: 204781
100%
Откуда: Minsk
pirates.png
E-Mantra Discography

Emmanuel Carpus, born and living in Romania, started making music since 1999 under the name Mystic Mantra, making techno, acid, and trance.
In 2000 he began the project E-Mantra and started making goa tunes.
He is also a primer member of Octopus Corporation Romania, a electronic music corporation…
He is known for his deep and melodic goatrance full of deep spirals.

Жанр: Goa Trance, Psybient, Ambient, Downtempo • Страна: Romania • Лейбл: Suntrip Records, Altar Records, etc. • Год издания: 2008-2020
Аудиокодек: FLAC (*.flac) • Тип рипа: tracks+.cue, tracks • Битрейт аудио: Lossless • Продолжительность: 24:25:50 • Источник: What, Bandcamp
Треклист:
Год выпуска: 2009
Продолжительноcть: 01:10:50
Треклист:

01. Praying Forest (09:03)
02. Shamanistic Rituals (10:58)
03. Last Encounter (08:24)
04. War Of The Hierophants (09:00)
05. Approaching Nibiru (07:32)
06. Dansul Ielelor (08:22)
07. Ninive Under The Stars (10:18)
08. Beyond The Boreas (07:13)

X Lossless Decoder version 20161007 (149.3)

XLD extraction logfile from 2017-03-10 19:02:12 +0000

e-mantra / Arcana

Used drive : Apple SuperDrive (revision 2.03)
Media type : Pressed CD

Ripper mode : XLD Secure Ripper
Disable audio cache : OK for the drive with a cache less than 1375KiB
Make use of C2 pointers : NO
Read offset correction : 6
Max retry count : 100
Gap status : Analyzed, Appended (except HTOA)

TOC of the extracted CD
Track | Start | Length | Start sector | End sector
---------------------------------------------------------
1 | 00:00:00 | 09:02:56 | 0 | 40705
2 | 09:02:56 | 10:57:35 | 40706 | 90015
3 | 20:00:16 | 08:23:22 | 90016 | 127762
4 | 28:23:38 | 08:59:65 | 127763 | 168252
5 | 37:23:28 | 07:31:23 | 168253 | 202100
6 | 44:54:51 | 08:21:61 | 202101 | 239736
7 | 53:16:37 | 10:17:43 | 239737 | 286054
8 | 63:34:05 | 07:12:58 | 286055 | 318512

List of alternate offset correction values
# | Absolute | Relative | Confidence
------------------------------------------
1 | 673 | 667 | 16

AccurateRip Summary (DiscID: 00167a78-0094c460-6c109608)
Track 01 : OK (v1+v2, confidence 15/15, with different offset)
Track 02 : OK (v1+v2, confidence 15/15, with different offset)
Track 03 : OK (v1+v2, confidence 16/16, with different offset)
Track 04 : OK (v1+v2, confidence 16/16, with different offset)
Track 05 : OK (v1+v2, confidence 15/15, with different offset)
Track 06 : OK (v1+v2, confidence 15/15, with different offset)
Track 07 : OK (v1+v2, confidence 15/15, with different offset)
Track 08 : OK (v1+v2, confidence 15/15, with different offset)
->All tracks accurately ripped.

All Tracks
Album gain : -7.79 dB
Peak : 0.965363
Statistics
Read error : 0
Jitter error (maybe fixed) : 0
Retry sector count : 0
Damaged sector count : 0

Track 01
Filename : /rips/e-mantra - Arcana [2009] [FLAC]/01 Praying Forest (short version).flac
Pre-gap length : 00:02:00

Track gain : -7.67 dB
Peak : 0.965363
CRC32 hash (test run) : FAFBEB54
CRC32 hash : FAFBEB54
CRC32 hash (skip zero) : 465BE5A2
AccurateRip v1 signature : 7857797A (F8DC3178 w/correction)
AccurateRip v2 signature : C83C2330 (8A939B36 w/correction)
->Accurately ripped with different offset (v1+v2, confidence 7+8/15, offset +667)
Statistics
Read error : 0
Jitter error (maybe fixed) : 0
Retry sector count : 0
Damaged sector count : 0

Track 02
Filename : /rips/e-mantra - Arcana [2009] [FLAC]/02 Shamanistic Rituals.flac
Pre-gap length : 00:02:00

Track gain : -8.29 dB
Peak : 0.965332
CRC32 hash (test run) : 20A2943B
CRC32 hash : 20A2943B
CRC32 hash (skip zero) : 279EFC2C
AccurateRip v1 signature : D5DDD077 (AFB2F78F w/correction)
AccurateRip v2 signature : AAEE15A2 (87E3E9FB w/correction)
->Accurately ripped with different offset (v1+v2, confidence 7+8/15, offset +667)
Statistics
Read error : 0
Jitter error (maybe fixed) : 0
Retry sector count : 0
Damaged sector count : 0

Track 03
Filename : /rips/e-mantra - Arcana [2009] [FLAC]/03 Last Encounter.flac
Pre-gap length : 00:02:00

Track gain : -7.18 dB
Peak : 0.965332
CRC32 hash (test run) : 28B3065A
CRC32 hash : 28B3065A
CRC32 hash (skip zero) : A0C530C0
AccurateRip v1 signature : E3EC456D (F33018E0 w/correction)
AccurateRip v2 signature : F39EB662 (356BF005 w/correction)
->Accurately ripped with different offset (v1+v2, confidence 8+8/16, offset +667)
Statistics
Read error : 0
Jitter error (maybe fixed) : 0
Retry sector count : 0
Damaged sector count : 0

Track 04
Filename : /rips/e-mantra - Arcana [2009] [FLAC]/04 War of the Hierophants.flac
Pre-gap length : 00:02:00

Track gain : -8.02 dB
Peak : 0.965302
CRC32 hash (test run) : A979DD56
CRC32 hash : A979DD56
CRC32 hash (skip zero) : 3BE61B0B
AccurateRip v1 signature : F31D9C43 (21690AD8 w/correction)
AccurateRip v2 signature : 5DA4D669 (D21E304C w/correction)
->Accurately ripped with different offset (v1+v2, confidence 8+8/16, offset +667)
Statistics
Read error : 0
Jitter error (maybe fixed) : 0
Retry sector count : 0
Damaged sector count : 0

Track 05
Filename : /rips/e-mantra - Arcana [2009] [FLAC]/05 Approaching Nibiru.flac
Pre-gap length : 00:02:00

Track gain : -8.05 dB
Peak : 0.965332
CRC32 hash (test run) : B7DBFF65
CRC32 hash : B7DBFF65
CRC32 hash (skip zero) : C602807B
AccurateRip v1 signature : E13ECD38 (72801DEB w/correction)
AccurateRip v2 signature : DCB0C1C5 (EB38B68C w/correction)
->Accurately ripped with different offset (v1+v2, confidence 7+8/15, offset +667)
Statistics
Read error : 0
Jitter error (maybe fixed) : 0
Retry sector count : 0
Damaged sector count : 0

Track 06
Filename : /rips/e-mantra - Arcana [2009] [FLAC]/06 Dansul Ielelor.flac
Pre-gap length : 00:02:00

Track gain : -7.77 dB
Peak : 0.965363
CRC32 hash (test run) : DF83207A
CRC32 hash : DF83207A
CRC32 hash (skip zero) : 2B579439
AccurateRip v1 signature : ED0ED1DD (4D576274 w/correction)
AccurateRip v2 signature : E36FB6C6 (970FF5B1 w/correction)
->Accurately ripped with different offset (v1+v2, confidence 7+8/15, offset +667)
Statistics
Read error : 0
Jitter error (maybe fixed) : 0
Retry sector count : 0
Damaged sector count : 0

Track 07
Filename : /rips/e-mantra - Arcana [2009] [FLAC]/07 Ninive Under the Stars.flac
Pre-gap length : 00:02:00

Track gain : -7.15 dB
Peak : 0.965363
CRC32 hash (test run) : 98A8D1EB
CRC32 hash : 98A8D1EB
CRC32 hash (skip zero) : 2BD5B9EF
AccurateRip v1 signature : 269C0956 (0A56AF1B w/correction)
AccurateRip v2 signature : 0841BEA7 (033FA4A8 w/correction)
->Accurately ripped with different offset (v1+v2, confidence 7+8/15, offset +667)
Statistics
Read error : 0
Jitter error (maybe fixed) : 0
Retry sector count : 0
Damaged sector count : 0

Track 08
Filename : /rips/e-mantra - Arcana [2009] [FLAC]/08 Beyond the Boreas.flac
Pre-gap length : 00:02:00

Track gain : -7.41 dB
Peak : 0.965332
CRC32 hash (test run) : B6B408EC
CRC32 hash : B6B408EC
CRC32 hash (skip zero) : 213AF009
AccurateRip v1 signature : 7E6A5B99 (6B83AA4E w/correction)
AccurateRip v2 signature : 00F100B4 (54336680 w/correction)
->Accurately ripped with different offset (v1+v2, confidence 7+8/15, offset +667)
Statistics
Read error : 0
Jitter error (maybe fixed) : 0
Retry sector count : 0
Damaged sector count : 0

No errors occurred

End of status report

-----BEGIN XLD SIGNATURE-----
PX.OspOyXIHqB4YpBE9eWPaXvKfxRQjtmd1Q7jHzhnLqdUn60IM.ksy19jn_eMj02pbLVa8dMtmnOnVyxU1c.sbEJDZgokesYo7niFW
-----END XLD SIGNATURE-----

Год выпуска: 2011
Продолжительноcть: 00:56:17
Треклист:

01. E-Mantra - Searching Ganesha (08:28)
02. E-Mantra - Praying Forest (Neurosect Remix) (09:52)
03. E-Mantra - Dansul Ielelor (Eleusyn Remix) (06:46)
04. E-Mantra - Telepatic Alienation (06:46)
05. Suufi Astrolab - Pompierul Piroman (06:42)
06. Suufi Astrolab - Birds Are Flying Over The Dark City (10:16)
07. Suufi Astrolab - Bicycles For Elita (05:21)
08. Suufi Astrolab - Ambient Girl Outro (02:06)

Exact Audio Copy V1.0 beta 1 from 15. November 2010

EAC extraction logfile from 2. April 2011, 16:29

E-Mantra & Suufi Astrolab / Astrograms

Used drive : MATSHITABD-RE UJ235A Adapter: 0 ID: 1

Read mode : Secure
Utilize accurate stream : Yes
Defeat audio cache : Yes
Make use of C2 pointers : No

Read offset correction : 102
Overread into Lead-In and Lead-Out : No
Fill up missing offset samples with silence : Yes
Delete leading and trailing silent blocks : No
Null samples used in CRC calculations : Yes
Used interface : Native Win32 interface for Win NT & 2000
Gap handling : Appended to previous track

Used output format : User Defined Encoder
Selected bitrate : 1024 kBit/s
Quality : High
Add ID3 tag : No
Command line compressor : C:\Program Files (x86)\Exact Audio Copy\Flac\flac.exe
Additional command line options : -8 -V -T "ARTIST=%a" -T "TITLE=%t" -T "ALBUM=%g" -T "DATE=%y" -T "TRACKNUMBER=%n" -T "GENRE=%m" -T "COMMENT=EAC FLAC -8" %s

TOC of the extracted CD

Track | Start | Length | Start sector | End sector
---------------------------------------------------------
1 | 0:00.00 | 8:27.09 | 0 | 38033
2 | 8:27.09 | 9:51.15 | 38034 | 82373
3 | 18:18.24 | 6:45.65 | 82374 | 112813
4 | 25:04.14 | 6:45.09 | 112814 | 143197
5 | 31:49.23 | 6:41.71 | 143198 | 173343
6 | 38:31.19 | 10:15.25 | 173344 | 219493
7 | 48:46.44 | 5:20.20 | 219494 | 243513
8 | 54:06.64 | 2:06.24 | 243514 | 252987

Track 1

Filename C:\Users\1\Downloads\E-Mantra & Suufi Astrolab - Astrograms\01. E-Mantra – Searching Ganesha.wav

Pre-gap length 0:00:02.00

Peak level 100.0 %
Track quality 100.0 %
Test CRC DBD45FD9
Copy CRC DBD45FD9
Track not present in AccurateRip database
Copy OK

Track 2

Filename C:\Users\1\Downloads\E-Mantra & Suufi Astrolab - Astrograms\02. E-Mantra – Praying Forest (Neurosect Remix).wav

Pre-gap length 0:00:02.00

Peak level 100.0 %
Track quality 100.0 %
Test CRC A9963558
Copy CRC A9963558
Track not present in AccurateRip database
Copy OK

Track 3

Filename C:\Users\1\Downloads\E-Mantra & Suufi Astrolab - Astrograms\03. E-Mantra – Dansul Ielelor (Eleusyn Remix).wav

Pre-gap length 0:00:02.00

Peak level 100.0 %
Track quality 100.0 %
Test CRC F4BFD29A
Copy CRC F4BFD29A
Track not present in AccurateRip database
Copy OK

Track 4

Filename C:\Users\1\Downloads\E-Mantra & Suufi Astrolab - Astrograms\04. E-Mantra – Telepatic Alienation.wav

Pre-gap length 0:00:02.00

Peak level 100.0 %
Track quality 99.9 %
Test CRC F8F47725
Copy CRC F8F47725
Track not present in AccurateRip database
Copy OK

Track 5

Filename C:\Users\1\Downloads\E-Mantra & Suufi Astrolab - Astrograms\05. Suufi Astrolab – Pompierul Piroman.wav

Pre-gap length 0:00:02.00

Peak level 100.0 %
Track quality 100.0 %
Test CRC AE815395
Copy CRC AE815395
Track not present in AccurateRip database
Copy OK

Track 6

Filename C:\Users\1\Downloads\E-Mantra & Suufi Astrolab - Astrograms\06. Suufi Astrolab – Birds Are Flying Over The Dark City.wav

Pre-gap length 0:00:02.00

Peak level 100.0 %
Track quality 100.0 %
Test CRC 0D84E50D
Copy CRC 0D84E50D
Track not present in AccurateRip database
Copy OK

Track 7

Filename C:\Users\1\Downloads\E-Mantra & Suufi Astrolab - Astrograms\07. Suufi Astrolab – Bicycles For Elita.wav

Pre-gap length 0:00:02.00

Peak level 100.0 %
Track quality 100.0 %
Test CRC D5E692E9
Copy CRC D5E692E9
Track not present in AccurateRip database
Copy OK

Track 8

Filename C:\Users\1\Downloads\E-Mantra & Suufi Astrolab - Astrograms\08. Suufi Astrolab – Ambient Girl Outro.wav

Pre-gap length 0:00:02.00

Peak level 100.0 %
Track quality 100.0 %
Test CRC 057DEF63
Copy CRC 057DEF63
Track not present in AccurateRip database
Copy OK

None of the tracks are present in the AccurateRip database

No errors occurred

End of status report

Год выпуска: 2011
Продолжительноcть: 01:15:51
Треклист:

01. Pathfinder (08:34)
02. Metamorphic Resonance (08:05)
03. Dansul Ielelor (Neurosect Edit 2011) (08:01)
04. Valley of the Kings (07:25)
05. Above the Skies (06:39)
06. Distant Signals (06:35)
07. Afterglow (07:53)
08. Approaching Nibiru (Eleusyn Rmx) (06:47)
09. Deep Descent (08:22)
10. If there is Nothing (07:30)
Год выпуска: 2011
Продолжительноcть: 01:11:58
Треклист:

01. Visions From The Past (07:08)
02. Forever (07:16)
03. Secluded Trails (08:54)
04. Menhir 2010 (07:48)
05. Hypnagogia (08:43)
06. Mindfluid (08:25)
07. Last Day Of The Butterfly (07:00)
08. Emptiness (Reasonandu Remix) (07:40)
09. Echoes Of An Empty Room (09:04)

X Lossless Decoder version 20120609 (141.0)

XLD extraction logfile from 2012-07-22 14:55:20 +1000

E-Mantra / Visions From The Past

Used drive : MATSHITA DVD-R UJ-898 (revision HC09)

Ripper mode : XLD Secure Ripper
Disable audio cache : OK for the drive with a cache less than 1375KiB
Make use of C2 pointers : NO
Read offset correction : 102
Max retry count : 20
Gap status : Analyzed, Appended

TOC of the extracted CD
Track | Start | Length | Start sector | End sector
---------------------------------------------------------
1 | 00:00:00 | 07:07:66 | 0 | 32090
2 | 07:07:66 | 07:15:69 | 32091 | 64784
3 | 14:23:60 | 08:54:00 | 64785 | 104834
4 | 23:17:60 | 07:48:00 | 104835 | 139934
5 | 31:05:60 | 08:42:18 | 139935 | 179102
6 | 39:48:03 | 08:24:30 | 179103 | 216932
7 | 48:12:33 | 06:59:38 | 216933 | 248395
8 | 55:11:71 | 07:39:65 | 248396 | 282885
9 | 62:51:61 | 09:03:36 | 282886 | 323646

AccurateRip Summary (DiscID: 00184d23-00b3249a-9310db09)
Track 01 : OK (v1, confidence 4/4)
Track 02 : OK (v1, confidence 4/4)
Track 03 : OK (v1, confidence 4/4)
Track 04 : OK (v1, confidence 4/4)
Track 05 : OK (v1, confidence 4/4)
Track 06 : OK (v1, confidence 4/4)
Track 07 : OK (v1, confidence 4/4)
Track 08 : OK (v1, confidence 4/4)
Track 09 : OK (v1, confidence 4/4)
->All tracks accurately ripped.

All Tracks
Album gain : -5.53 dB
Peak : 0.988617
Statistics
Read error : 0
Jitter error (maybe fixed) : 0
Retry sector count : 0
Damaged sector count : 0

Track 01
Filename : /Users/flavius/Music/what/E-Mantra - Visions From The Past (2011) [FLAC (level 8)]/01 Visions From The Past.flac
Pre-gap length : 00:02:00

Track gain : -5.29 dB
Peak : 0.982880
CRC32 hash (test run) : A46A10C4
CRC32 hash : A46A10C4
CRC32 hash (skip zero) : 99C209CB
AccurateRip v1 signature : F2D3A205
AccurateRip v2 signature : 5367ABFC
->Accurately ripped (v1, confidence 4/4)
Statistics
Read error : 0
Jitter error (maybe fixed) : 0
Retry sector count : 0
Damaged sector count : 0

Track 02
Filename : /Users/flavius/Music/what/E-Mantra - Visions From The Past (2011) [FLAC (level 8)]/02 Forever.flac

Track gain : -5.74 dB
Peak : 0.982880
CRC32 hash (test run) : 0FD9E075
CRC32 hash : 0FD9E075
CRC32 hash (skip zero) : 3B7AD1A4
AccurateRip v1 signature : 8969CD0B
AccurateRip v2 signature : D0261381
->Accurately ripped (v1, confidence 4/4)
Statistics
Read error : 0
Jitter error (maybe fixed) : 0
Retry sector count : 0
Damaged sector count : 0

Track 03
Filename : /Users/flavius/Music/what/E-Mantra - Visions From The Past (2011) [FLAC (level 8)]/03 Secluded Trails.flac

Track gain : -6.41 dB
Peak : 0.982880
CRC32 hash (test run) : 24C9BF91
CRC32 hash : 24C9BF91
CRC32 hash (skip zero) : A14E6EEC
AccurateRip v1 signature : 65493B7A
AccurateRip v2 signature : 982A610D
->Accurately ripped (v1, confidence 4/4)
Statistics
Read error : 0
Jitter error (maybe fixed) : 0
Retry sector count : 0
Damaged sector count : 0

Track 04
Filename : /Users/flavius/Music/what/E-Mantra - Visions From The Past (2011) [FLAC (level 8)]/04 Menhir 2010.flac

Track gain : -6.20 dB
Peak : 0.982880
CRC32 hash (test run) : E715FD17
CRC32 hash : E715FD17
CRC32 hash (skip zero) : 6C716453
AccurateRip v1 signature : CA48EC56
AccurateRip v2 signature : 26B3D27F
->Accurately ripped (v1, confidence 4/4)
Statistics
Read error : 0
Jitter error (maybe fixed) : 0
Retry sector count : 0
Damaged sector count : 0

Track 05
Filename : /Users/flavius/Music/what/E-Mantra - Visions From The Past (2011) [FLAC (level 8)]/05 Hypnagogia.flac

Track gain : -4.39 dB
Peak : 0.982880
CRC32 hash (test run) : 1659EFFD
CRC32 hash : 1659EFFD
CRC32 hash (skip zero) : 3481311F
AccurateRip v1 signature : 32E10208
AccurateRip v2 signature : 29778883
->Accurately ripped (v1, confidence 4/4)
Statistics
Read error : 0
Jitter error (maybe fixed) : 0
Retry sector count : 0
Damaged sector count : 0

Track 06
Filename : /Users/flavius/Music/what/E-Mantra - Visions From The Past (2011) [FLAC (level 8)]/06 Mindfluid.flac

Track gain : -3.16 dB
Peak : 0.988617
CRC32 hash (test run) : AC5A3504
CRC32 hash : AC5A3504
CRC32 hash (skip zero) : 584E2F64
AccurateRip v1 signature : 21C37629
AccurateRip v2 signature : 68B273AB
->Accurately ripped (v1, confidence 4/4)
Statistics
Read error : 0
Jitter error (maybe fixed) : 0
Retry sector count : 0
Damaged sector count : 0

Track 07
Filename : /Users/flavius/Music/what/E-Mantra - Visions From The Past (2011) [FLAC (level 8)]/07 Last Day Of The Butterfly.flac

Track gain : -5.36 dB
Peak : 0.982880
CRC32 hash (test run) : 64088017
CRC32 hash : 64088017
CRC32 hash (skip zero) : 6268050F
AccurateRip v1 signature : EF674887
AccurateRip v2 signature : 3147DD4B
->Accurately ripped (v1, confidence 4/4)
Statistics
Read error : 0
Jitter error (maybe fixed) : 0
Retry sector count : 0
Damaged sector count : 0

Track 08
Filename : /Users/flavius/Music/what/E-Mantra - Visions From The Past (2011) [FLAC (level 8)]/08 Emptiness (Reasonandu Remix).flac

Track gain : -3.81 dB
Peak : 0.982880
CRC32 hash (test run) : 0620DD44
CRC32 hash : 0620DD44
CRC32 hash (skip zero) : BA76EB65
AccurateRip v1 signature : 444A2335
AccurateRip v2 signature : 38E027C4
->Accurately ripped (v1, confidence 4/4)
Statistics
Read error : 0
Jitter error (maybe fixed) : 0
Retry sector count : 0
Damaged sector count : 0

Track 09
Filename : /Users/flavius/Music/what/E-Mantra - Visions From The Past (2011) [FLAC (level 8)]/09 Echoes Of An Empty Room.flac

Track gain : -6.20 dB
Peak : 0.982880
CRC32 hash (test run) : 8DA3006E
CRC32 hash : 8DA3006E
CRC32 hash (skip zero) : D415488F
AccurateRip v1 signature : C415BF9B
AccurateRip v2 signature : 9E7EB702
->Accurately ripped (v1, confidence 4/4)
Statistics
Read error : 0
Jitter error (maybe fixed) : 0
Retry sector count : 0
Damaged sector count : 0

No errors occurred

End of status report

Год выпуска: 2012
Продолжительноcть: 01:12:33
Треклист:

01. Silence (05:49)
02. Since You Were Gone (feat. Athena Etana) (07:23)
03. Ecouri (06:17)
04. Departed 2012 (06:59)
05. Shadow Skies (feat. Reasonandu) (06:25)
06. Night Walker (06:06)
07. Prelude (06:15)
08. Le Ciel Est Triste (06:26)
09. Echoes Of An Empty Room (Hotep Remix) (07:52)
10. Touching (05:36)
11. Passing Through (07:25)
Год выпуска: 2013
Продолжительноcть: 01:08:47
Треклист:

01. Between Two Worlds - The Boatman (07:26)
02. The Hermit's Sanctuary Part I - "Meditate" (06:55)
03. The Hermit's Sanctuary Part II - "Sleep" (07:06)
04. The Hermit's Sanctuary Part III - "Requiem" (05:59)
05. Howls From The Deep (06:49)
06. Daydream (06:28)
07. Pheromone (06:54)
08. Harmonic Waves (Re-edit) (06:14)
09. Nocturne (07:30)
10. Lonely Sorrow (07:26)
Год выпуска: 2014
Продолжительноcть: 01:15:18
Треклист:

01. The Entity (09:54)
02. Wrath of the Nomads (08:24)
03. Fall of Icarus (07:36)
04. Gebeleizis (07:47)
05. Xibalba (08:18)
06. Ayahuasca (08:05)
07. Mission Aborted (07:35)
08. Orphic Hymn (07:37)
09. Shae Nab (feat. Suufi Astrolab) (10:02)
Год выпуска: 2014
Продолжительноcть: 01:02:44
Треклист:

01. E-Mantra - Echoes from the void (08:36)
02. E-Mantra - Everything Ends (06:42)
03. E-Mantra - Snow Began to Fall (06:51)
04. E-Mantra & Reasonandu - Words you said (06:09)
05. E-Mantra - Stillness of Dawn (07:58)
06. Sundial Aeon - Drifting Radio Frequencies (E-Mantra remix) (06:42)
07. E-Mantra - Moon Drifter (06:55)
08. Night hex - Invocation (06:34)
09. E-Mantra - Shivers (06:17)

Exact Audio Copy V1.0 beta 3 from 29. August 2011

EAC extraction logfile from 26. November 2014, 20:52

Unknown Artist / Unknown Title

Used drive : Optiarc DVD RW AD-5280S Adapter: 2 ID: 0

Read mode : Secure
Utilize accurate stream : Yes
Defeat audio cache : Yes
Make use of C2 pointers : No

Read offset correction : 48
Overread into Lead-In and Lead-Out : No
Fill up missing offset samples with silence : Yes
Delete leading and trailing silent blocks : No
Null samples used in CRC calculations : Yes
Used interface : Native Win32 interface for Win NT & 2000
Gap handling : Appended to previous track

Used output format : User Defined Encoder
Selected bitrate : 768 kBit/s
Quality : High
Add ID3 tag : No
Command line compressor : C:\Program Files (x86)\Exact Audio Copy\Flac\flac.exe
Additional command line options : -V -8 -T "Date=%year%" -T "Genre=%genre%" %source%

TOC of the extracted CD

Track | Start | Length | Start sector | End sector
---------------------------------------------------------
1 | 0:00.00 | 8:35.09 | 0 | 38633
2 | 8:35.09 | 6:42.00 | 38634 | 68783
3 | 15:17.09 | 6:51.00 | 68784 | 99608
4 | 22:08.09 | 6:09.00 | 99609 | 127283
5 | 28:17.09 | 7:57.45 | 127284 | 163103
6 | 36:14.54 | 6:41.34 | 163104 | 193212
7 | 42:56.13 | 6:54.14 | 193213 | 224276
8 | 49:50.27 | 6:34.00 | 224277 | 253826
9 | 56:24.27 | 6:16.47 | 253827 | 282073

Track 1

Filename D:\rip\01. Unknown Artist - Трек01.wav

Pre-gap length 0:00:02.00

Peak level 98.7 %
Extraction speed 2.8 X
Track quality 100.0 %
Test CRC 5C5E6521
Copy CRC 5C5E6521
Track not present in AccurateRip database
Copy OK

Track 2

Filename D:\rip\02. Unknown Artist - Трек02.wav

Peak level 98.7 %
Extraction speed 3.2 X
Track quality 100.0 %
Test CRC 6B7443A5
Copy CRC 6B7443A5
Track not present in AccurateRip database
Copy OK

Track 3

Filename D:\rip\03. Unknown Artist - Трек03.wav

Peak level 98.7 %
Extraction speed 3.4 X
Track quality 99.9 %
Test CRC 8ADBA3B6
Copy CRC 8ADBA3B6
Track not present in AccurateRip database
Copy OK

Track 4

Filename D:\rip\04. Unknown Artist - Трек04.wav

Peak level 98.7 %
Extraction speed 3.9 X
Track quality 100.0 %
Test CRC 8D1869DB
Copy CRC 8D1869DB
Track not present in AccurateRip database
Copy OK

Track 5

Filename D:\rip\05. Unknown Artist - Трек05.wav

Peak level 98.7 %
Extraction speed 4.3 X
Track quality 100.0 %
Test CRC 0BB24189
Copy CRC 0BB24189
Track not present in AccurateRip database
Copy OK

Track 6

Filename D:\rip\06. Unknown Artist - Трек06.wav

Peak level 98.7 %
Extraction speed 4.6 X
Track quality 100.0 %
Test CRC D2D541C2
Copy CRC D2D541C2
Track not present in AccurateRip database
Copy OK

Track 7

Filename D:\rip\07. Unknown Artist - Трек07.wav

Peak level 98.7 %
Extraction speed 4.9 X
Track quality 100.0 %
Test CRC BC269B7C
Copy CRC BC269B7C
Track not present in AccurateRip database
Copy OK

Track 8

Filename D:\rip\08. Unknown Artist - Трек08.wav

Peak level 98.7 %
Extraction speed 5.1 X
Track quality 100.0 %
Test CRC 014010C1
Copy CRC 014010C1
Track not present in AccurateRip database
Copy OK

Track 9

Filename D:\rip\09. Unknown Artist - Трек09.wav

Peak level 100.0 %
Extraction speed 5.3 X
Track quality 100.0 %
Test CRC 2977513F
Copy CRC 2977513F
Track not present in AccurateRip database
Copy OK

None of the tracks are present in the AccurateRip database

No errors occurred

End of status report

==== Log checksum 2A26BEC81463F17A71C3EC925982DF8A3EE6B2062C7EC5A214E1E233B233C5C0 ====

Год выпуска: 2015
Продолжительноcть: 01:06:12
Треклист:

01. Starlights (06:36)
02. I Shall Not Care (07:32)
03. Veiled Clouds (07:11)
04. Kaleidoscope Clouds (Main Sequence Star Remix) (08:51)
05. Shadow Traveler (07:13)
06. Gethsemane (07:37)
07. The Darkest Hours (06:48)
08. Resurrection (07:24)
09. Fiat Lux (07:00)
Год выпуска: 2008
Продолжительноcть: 00:30:33
Треклист:

01. Moon Horns 2003 (10:04)
02. Ectoplasm 2003 (08:00)
03. Radiant Vision 2003 (12:29)

-----------------------

DON'T MODIFY THIS FILE

-----------------------

PERFORMER: auCDtect Task Manager, ver. 1.5.1RC6 build 1.5.1.7
Copyright (c) 2008-2010 y-soft. All rights reserved
http://y-soft.org

ANALYZER: auCDtect: CD records authenticity detector, version 0.8.2
Copyright (c) 2004 Oleg Berngardt. All rights reserved.
Copyright (c) 2004 Alexander Djourik. All rights reserved.

FILE: 03. Radiant Vision 2003.flac
Size: 94397635 Hash: AD9E563C4310D1D05D05426FC49A5036 Accuracy: -m0
Conclusion: MPEG 95%
Signature: F7084ACC8061D08C99FB0BC2E8C043D0981205C5
FILE: 02. Ectoplasm 2003.flac
Size: 62939870 Hash: 81DA345DB7D9A475D52B5800B11E7B4D Accuracy: -m0
Conclusion: CDDA 92%
Signature: 32B35113FD0BA5D416931A6437E30EF5E07B22D8
FILE: 01. Moon Horns 2003.flac
Size: 77498595 Hash: 46EFBC47A0600B4913DC2312C80D0684 Accuracy: -m0
Conclusion: MPEG 79%
Signature: D5D42C10CEC622891F00351B28EE104717E9449D

Год выпуска: 2015
Продолжительноcть: 00:19:50
Треклист:

01. Leviathan (07:15)
02. Gilgamesh (06:24)
03. Dark Druid Rituals (Eleusyn remix) (06:11)

-----------------------

DON'T MODIFY THIS FILE

-----------------------

PERFORMER: auCDtect Task Manager, ver. 1.5.1RC6 build 1.5.1.7
Copyright (c) 2008-2010 y-soft. All rights reserved
http://y-soft.org

ANALYZER: auCDtect: CD records authenticity detector, version 0.8.2
Copyright (c) 2004 Oleg Berngardt. All rights reserved.
Copyright (c) 2004 Alexander Djourik. All rights reserved.

FILE: 02. Gilgamesh.flac
Size: 47832351 Hash: BFD6EE4743957283FA886840FD09E2CC Accuracy: -m0
Conclusion: CDDA 100%
Signature: B56A4B2C50C9D0EFEF0DFE6269880B21365BF928

Год выпуска: 2015
Продолжительноcть: 00:41:10
Треклист:

01. Night Visitors (08:39)
02. Sleep Paralysis (07:33)
03. Distorted Visions (07:36)
04. Ninive Under The Stars (Night Hex Remix) (10:37)
05. Katharsis (06:45)

-----------------------

DON'T MODIFY THIS FILE

-----------------------

PERFORMER: auCDtect Task Manager, ver. 1.5.1RC6 build 1.5.1.7
Copyright (c) 2008-2010 y-soft. All rights reserved
http://y-soft.org

ANALYZER: auCDtect: CD records authenticity detector, version 0.8.2
Copyright (c) 2004 Oleg Berngardt. All rights reserved.
Copyright (c) 2004 Alexander Djourik. All rights reserved.

FILE: 05. Katharsis.flac
Size: 48258531 Hash: 89909010DBC710A850519F394830FB3A Accuracy: -m0
Conclusion: CDDA 100%
Signature: 97D4FEEF2DE205A24C0264E8EB5F2CEC2E2E01CE
FILE: 04. E-Mantra - Ninive Under The Stars (Night Hex Remix).flac
Size: 75235425 Hash: 76487E2E453D19BCF4FED7769BD7ACD2 Accuracy: -m0
Conclusion: CDDA 100%
Signature: 4F274008AF2FE696784A053F10FA9998850CE31A
FILE: 03. Distorted Visions.flac
Size: 54752310 Hash: 180DF062929CC8996686BBD192EA38EE Accuracy: -m0
Conclusion: CDDA 100%
Signature: 28AFEDB65050EFA672C13C9183CB6753122F5183
FILE: 02. Sleep Paralysis.flac
Size: 55131694 Hash: EC1F8F43B9F9D4974183F41F6BAFDD18 Accuracy: -m0
Conclusion: CDDA 100%
Signature: 2FEA0CD478406CD1DDA157F573A4AB559F9C748B
FILE: 01. Night Visitors.flac
Size: 62576831 Hash: 0688FB08FA9462928677A793BEDC8C1D Accuracy: -m0
Conclusion: CDDA 99%
Signature: 03CDDA777F0A7C151C4FEFB07874C34561177601

Год выпуска: 2012
Продолжительноcть: 01:16:16
Треклист:

01. Hotep - A Stranger in the Fog (08:46)
02. Cabeiri - The 5th Element (10:11)
03. Blue Bliss - Nexus (03:55)
04. Artifact303 - Creation (07:55)
05. Suufi Astrolab - Arcturus (08:49)
06. Psygone - Surrender to the Source (08:57)
07. Reasonandu - Undone Fragments (06:13)
08. E-Mantra - Kaleidoscope Clouds (06:47)
09. Dense - Remount (07:26)
10. Tentura - Rain of Light (07:17)

-----------------------

DON'T MODIFY THIS FILE

-----------------------

PERFORMER: auCDtect Task Manager, ver. 1.5.1RC4 build 1.5.1.5
Copyright (c) 2008-2010 y-soft. All rights reserved
http://y-soft.org

ANALYZER: auCDtect: CD records authenticity detector, version 0.8.2
Copyright (c) 2004 Oleg Berngardt. All rights reserved.
Copyright (c) 2004 Alexander Djourik. All rights reserved.

FILE: 10. Tentura - Rain of Light.flac
Size: 54259172 Hash: 6497EB4C62A0BBDFB2B5410416F119BF Accuracy: -m0
Conclusion: CDDA 100%
Signature: 04EE57E048DF2BF3BD02CA72FD02F3E46F05AF82
FILE: 09. Dense - Remount.flac
Size: 48267160 Hash: 26ECC743F68D0639C51C066780DE5551 Accuracy: -m0
Conclusion: CDDA 99%
Signature: 8654A23305305B800AE0E4DF13A925F28F48A804
FILE: 08. E-Mantra - Kaleidoscope Clouds.flac
Size: 45194707 Hash: FBEB84AC01E5CB580972319500CBA8EF Accuracy: -m0
Conclusion: CDDA 100%
Signature: B33D0AB8F6AD241B0EB864628B44DEDD78957C72
FILE: 07. Reasonandu - Undone Fragments.flac
Size: 43594983 Hash: F71CE0F116C32647408B96800B6963CC Accuracy: -m0
Conclusion: CDDA 100%
Signature: 1971A7BABEF0C3D03B22643F19A47E3C2D0EBF2F
FILE: 06. Psygone - Surrender to the Source.flac
Size: 63848441 Hash: 6C6776D8374F150EA690EFFBEDCF3DD5 Accuracy: -m0
Conclusion: CDDA 100%
Signature: BE0601689D85E94D9992B649E1355B41560653DE
FILE: 05. Suufi Astrolab - Arcturus.flac
Size: 58043165 Hash: AA2D070BD25F3E8E11E6F9B10801B52D Accuracy: -m0
Conclusion: CDDA 100%
Signature: B2E1F87DCC82BEF4D6E622051E07FCB661FF0067
FILE: 04. Artifact303 - Creation.flac
Size: 57375466 Hash: 503C4E61C537E6CBA668A7708C50DFA8 Accuracy: -m0
Conclusion: CDDA 100%
Signature: 7C42495192B2A72222DD8F638E232B4CD457000F
FILE: 03. Blue Bliss - Nexus.flac
Size: 23353539 Hash: 75BD6BDEAD0C321492F58C3E2BADFC31 Accuracy: -m0
Conclusion: MPEG 95%
Signature: 862060C887A9EC284F6CD69753CF316CEADDB792
FILE: 02. Cabeiri - The 5th Element.flac
Size: 63920734 Hash: B80025EABA263BF48899FA93F2EEB254 Accuracy: -m0
Conclusion: CDDA 100%
Signature: 1AA4430476D1CDF60226666B16FFA18C9EC03B96
FILE: 01. Hotep - A Stranger in the Fog.flac
Size: 60552068 Hash: C6865440A041CBCFC9F5ED4E2B3C39E1 Accuracy: -m0
Conclusion: CDDA 100%
Signature: 82A97A7D2636B7DF2A3E47B66D045616547586E4

Год выпуска: 2014
Продолжительноcть: 01:17:45
Треклист:

01. AuroraX - Human Navigations (08:39)
02. Harax - Waiting (06:41)
03. Reasonandu - Alioth (06:19)
04. Menkalian - Listening The Silence (07:26)
05. Suryademah - Maha Yoga (09:04)
06. Suufi Astrolab - On Hold With Music (07:56)
07. Suufi Astrolab - Valuri Fractalistice (03:40)
08. Olexa - 30 (02:45)
09. Olexa - Liaison (05:09)
10. V I S O - Observer (08:14)
11. Blue Bliss - Autumn (04:22)
12. E-Mantra - Passing Through (Second Voyage feat. Feeria Noptii) (07:30)

-----------------------

DON'T MODIFY THIS FILE

-----------------------

PERFORMER: auCDtect Task Manager, ver. 1.5.1RC6 build 1.5.1.7
Copyright (c) 2008-2010 y-soft. All rights reserved
http://y-soft.org

ANALYZER: auCDtect: CD records authenticity detector, version 0.8.2
Copyright (c) 2004 Oleg Berngardt. All rights reserved.
Copyright (c) 2004 Alexander Djourik. All rights reserved.

FILE: 12. E-Mantra - Passing Through (Second Voyage feat. Feeria Noptii).flac
Size: 45793899 Hash: 7A6168404284406CA2989E651DA5F9C1 Accuracy: -m0
Conclusion: CDDA 100%
Signature: F239389AB41EB1CE762E3A0514817F3BAE53A310
FILE: 11. Blue Bliss - Autumn.flac
Size: 21475590 Hash: A0F04185612EFF1DBA1ACC26892E5E43 Accuracy: -m0
Conclusion: CDDA 100%
Signature: 02737FE09A13DB8BA568410C0C9DF76860EEC123
FILE: 10. V I S O - Observer.flac
Size: 50200173 Hash: CDB6CD9E7787141F011909E56F12D82C Accuracy: -m0
Conclusion: CDDA 99%
Signature: 2CD48B60FD729C2A9F8AF7A825EAB9F02690698A
FILE: 09. Olexa - Liaison.flac
Size: 26810022 Hash: E1EAB4A490189D170A0B6E13A88CF0F5 Accuracy: -m0
Conclusion: CDDA 100%
Signature: D173D7EBE4226C42B36D9A01CDBB616E48DDDE15
FILE: 08. Olexa - 30.flac
Size: 14932280 Hash: 494AC1A24CE60AF4B26F79B87334C6E2 Accuracy: -m0
Conclusion: MPEG 95%
Signature: A9252F44EFB309DD4D17C96426DA1378A65D1320
FILE: 07. Suufi Astrolab - Valuri Fractalistice.flac
Size: 23494206 Hash: 3AEDDBFC3C304EFD55CF39A59FA26ACE Accuracy: -m0
Conclusion: MPEG 98%
Signature: A10BBCAACCB5F6C7D7E446007AD069DDE3D936B7
FILE: 06. Suufi Astrolab - On Hold With Music.flac
Size: 54763895 Hash: 0511C72865302A6C7A37533DC4AE9913 Accuracy: -m0
Conclusion: MPEG 95%
Signature: FE44CC97AD0B316D608E2FA177EE83C37FFD684A
FILE: 05. Suryademah - Maha Yoga.flac
Size: 50293117 Hash: A0C6C5DC2CF20BA72BD1A7DD47EA1022 Accuracy: -m0
Conclusion: CDDA 100%
Signature: 4ED4569F015AFBA53B537E07C56797C89DA10B60
FILE: 04. Menkalian - Listening The Silence.flac
Size: 52810043 Hash: C4E1A22C2116578FDE513A4600918880 Accuracy: -m0
Conclusion: CDDA 100%
Signature: 8C587A0D1131AD4489CED631B365B02DEF7CD726
FILE: 03. Reasonandu - Alioth.flac
Size: 41223691 Hash: 723DD57C88783F24D39D2C645F80CC01 Accuracy: -m0
Conclusion: CDDA 99%
Signature: 03A1E8614AE9FC4553E52D886DF154A99F7EA175
FILE: 02. Harax - Waiting.flac
Size: 43134149 Hash: 8D556CA09667BC64767D36E336CED633 Accuracy: -m0
Conclusion: CDDA 100%
Signature: CAB76C54AB3DAA45455FEE7EAACCE6A88D69B1F6
FILE: 01. AuroraX - Human Navigations.flac
Size: 58042320 Hash: B059FAFEBB3AB13CD510E5B4F6F40410 Accuracy: -m0
Conclusion: CDDA 99%
Signature: 542B17667B0B86ED00C459C532A94BE0CA2A2858

Время раздачи: 12/7
[NNMClub.to]_E-Mantra FLAC.torrent
 Торрент: Серебряная раздча  Зарегистрирован
 
Зарегистрируйтесь и скачайте торрент!
79,4 KB
Free Leech
Примагнититься
 Зарегистрирован:   21 Мар 2020 18:06:17
 Размер:   9,59 GB  (
 Рейтинг:   4,8 (Голосов: 66)
 Поблагодарили:   227
 Проверка:   Оформление проверено модератором 21 Мар 2020 18:07:28
Как cкачать  ·  Как раздать  ·  Правильно оформить  ·  Поднять ратио!  
aduser
Стаж: 9 лет 10 мес.
Сообщений: 102
Ratio: 13,791
100%
Откуда: из далекой далекой галактики
Все отлично! Добавьте если можно пожалуйста трек E Mantra - Minimal Butterfly.
vilator ®
Модератор Музыки
RG Music
 
Стаж: 10 лет 11 мес.
Сообщений: 10201
Ratio: 254,204
Поблагодарили: 204781
100%
Откуда: Minsk
pirates.png
aduser писал(а): Перейти к сообщению
E Mantra - Minimal Butterfly

он издавался в компиляции Locomotion и не имеет отношения к официальной дискографии.
RembaXXX
Стаж: 10 лет 11 мес.
Сообщений: 524
Ratio: 4,164
5.65%
Откуда: Москва
russia.gif
Плодовитый товарищ. Жаль что все треки довольно однообразны.
startseff
Стаж: 5 лет
Сообщений: 610
Ratio: 8,331
100%
belarus.gif
Шикарная музыка ! Качнул из любопытства , послушал ... и прибалдел немного ... зацепило так , пробрало аж ... понравилось , короче говоря ...
vilator ®
Модератор Музыки
RG Music
 
Стаж: 10 лет 11 мес.
Сообщений: 10201
Ratio: 254,204
Поблагодарили: 204781
100%
Откуда: Minsk
pirates.png
Обновление:
2018 Serenity (WEB)
vilator ®
Модератор Музыки
RG Music
 
Стаж: 10 лет 11 мес.
Сообщений: 10201
Ratio: 254,204
Поблагодарили: 204781
100%
Откуда: Minsk
pirates.png
Обновление:
2019 Tartarus (WEB)
moez
Стаж: 9 лет 7 мес.
Сообщений: 46
Ratio: 5,761
100%
ussr.gif
большое эмбиентное спасибо!!
unknownsp​aceship​
Стаж: 3 года 6 мес.
Сообщений: 58
Ratio: 0,887
0.78%
belarus.gif
startseff писал(а): Перейти к сообщению
Шикарная музыка ! Качнул из любопытства , послушал ... и прибалдел немного ... зацепило так , пробрало аж ... понравилось , короче говоря ...

Это ещё что... Попробуйте Argus, Lab`s Cloud, Dhamika.
И добро пожаловать в клуб)

_________________
Ты не Ты, когда никогда...
startseff
Стаж: 5 лет
Сообщений: 610
Ratio: 8,331
100%
belarus.gif
Цитата:
добро пожаловать в клуб

Друзья
vilator ®
Модератор Музыки
RG Music
 
Стаж: 10 лет 11 мес.
Сообщений: 10201
Ratio: 254,204
Поблагодарили: 204781
100%
Откуда: Minsk
pirates.png
Обновление:
2019 Soundscapes (WEB)
vilator ®
Модератор Музыки
RG Music
 
Стаж: 10 лет 11 мес.
Сообщений: 10201
Ratio: 254,204
Поблагодарили: 204781
100%
Откуда: Minsk
pirates.png
Обновление:
2020 Drifting (WEB)
Victorrrrr5
Стаж: 10 лет 5 мес.
Сообщений: 43
Ratio: 0,454
Раздал: 225 GB
77.95%
russia.gif
Спасибо..Друг! Свежак налицо...выложился парнишка...Так держать..
wlad3972
Стаж: 8 лет 2 мес.
Сообщений: 3
Ratio: 2,053
92.79%
https://melusinerecords.bandcamp.com/album/silence
vilator ®
Модератор Музыки
RG Music
 
Стаж: 10 лет 11 мес.
Сообщений: 10201
Ratio: 254,204
Поблагодарили: 204781
100%
Откуда: Minsk
pirates.png
Обновление:
2020 Poem (WEB)
2020 Silence (Remastered) (WEB-24Bit)


заменил рип на свежий
2009 Arcana (CD)

заменил вебки на рипы
2011 Pathfinder (CD)
2012 Silence (CD)
2013 The Hermit's Sanctuary (CD)
2014 Nemesis (CD)
2015 Raining Lights (CD)
Показать сообщения:   
Начать новую тему   Ответить на тему    Торрент-трекер NNM-Club -> Electronic -> Psychedelic, psytrance, fullon (Lossless) Часовой пояс: GMT + 3
Страница 1 из 1