Классический форум-трекер
canvas not supported
Нас вместе: 4 079 490

Empusae - Discography 17 Releases (2002-2018) Ant-Zen, Hands [FLAC|Lossless|tracks+.cue, tracks] <Dark Ambient, Rhythmic Noise, Tribal, Industrial>


 
 
RSS
Начать новую тему   Ответить на тему    Торрент-трекер NNM-Club -> Electronic -> Experimental, Industrial, EBM, Dark Electro (Lossless)
Автор Сообщение
vilator ®
Модератор Музыки
RG Music
 
Стаж: 10 лет 6 мес.
Сообщений: 9467
Ratio: 178,365
Поблагодарили: 192030
100%
Откуда: Minsk
pirates.png


Эмпуса, эмпуза (др.-греч. Έμπουσα) — в греческой мифологии женщина-демон, мифическое существо с ослиными ногами,
напоминающее вампира (упыря), высасывающего по ночам кровь у спящего человека.
Empusae – проект бельгийского музыканта Николаса ван Мейерхега, основанный в 2002 году и известный по альбомам, выпущенным Divine Comedy Records, "Sub.Session" и "Hands". Это довольно сложная музыка, обнаруживающая массу влияний от пост-индустриальной эзотерики и кинематографического эмбиента до EBM и драм'н'басса и элементов noise. В то же время, в ней нельзя не заметить и определённой оригинальности, которая быстро принесла группе успех в европейском клубном андеграунде.

Жанр: Dark Ambient, Rhythmic Noise, Tribal, Industrial • Страна: Belgium • Год издания: 2002-2018 • Тип издания: CD, Vinyl, Web
Аудиокодек: FLAC (*.flac) • Тип рипа: tracks+.cue, tracks • Продолжительность: 14:26:51 • Источник: What, Waffles, bandcamp
Треклист:
Год выпуска: 2002
Продолжительность: 01:04:32
Треклист:

01. Agony (Misere I) (01:50)
02. Out Of Question (Misere II) (05:20)
03. God (05:35)
04. MasterSlave (04:06)
05. La Puissance (06:15)
06. Knowledge (04:37)
07. Oorlog (06:50)
08. Fantasm I (01:32)
09. Fantasm II (03:35)
10. The Binding Of Destruction (04:23)
11. Dark Alchemy (Harsh Floor Mix) (05:15)
12. Misere (feat. This Morn' Omina) (03:56)
13. Oorlog (Het Verdrag Van Melle Mix) (06:05)
14. E.G.O (Empusae Remix) (05:13)

Exact Audio Copy V0.99 prebeta 4 from 23. January 2008

EAC extraction logfile from 2. October 2008, 10:02

Empusae / Funestus

Used drive : _NEC DVD_RW ND-3550A Adapter: 0 ID: 0

Read mode : Secure
Utilize accurate stream : Yes
Defeat audio cache : Yes
Make use of C2 pointers : No

Read offset correction : 48
Overread into Lead-In and Lead-Out : No
Fill up missing offset samples with silence : Yes
Delete leading and trailing silent blocks : No
Null samples used in CRC calculations : Yes
Used interface : Installed external ASPI interface
Gap handling : Appended to previous track

Used output format : User Defined Encoder
Selected bitrate : 1024 kBit/s
Quality : High
Add ID3 tag : No
Command line compressor : D:\Programs\Tools\_Exact Audio Copy\FLAC\FLAC.EXE
Additional command line options : -8 -V -T "ARTIST=%a" -T "TITLE=%t" -T "ALBUM=%g" -T "DATE=%y" -T "TRACKNUMBER=%n" -T "GENRE=%m" -T "COMMENT=%e" %s -o %d

TOC of the extracted CD

Track | Start | Length | Start sector | End sector
---------------------------------------------------------
1 | 0:00.00 | 1:50.36 | 0 | 8285
2 | 1:50.36 | 5:19.73 | 8286 | 32283
3 | 7:10.34 | 5:35.01 | 32284 | 57409
4 | 12:45.35 | 4:06.15 | 57410 | 75874
5 | 16:51.50 | 6:15.09 | 75875 | 104008
6 | 23:06.59 | 4:36.46 | 104009 | 124754
7 | 27:43.30 | 6:50.09 | 124755 | 155513
8 | 34:33.39 | 1:31.60 | 155514 | 162398
9 | 36:05.24 | 3:35.01 | 162399 | 178524
10 | 39:40.25 | 4:22.62 | 178525 | 198236
11 | 44:03.12 | 5:14.67 | 198237 | 221853
12 | 49:18.04 | 3:56.05 | 221854 | 239558
13 | 53:14.09 | 6:04.72 | 239559 | 266930
14 | 59:19.06 | 5:12.67 | 266931 | 290397

Track 1

Filename G:\EAC Temporare\01 Agony (Misere I).wav

Pre-gap length 0:00:02.00

Peak level 86.4 %
Track quality 100.0 %
Test CRC B6BA22DA
Copy CRC B6BA22DA
Track not present in AccurateRip database
Copy OK

Track 2

Filename G:\EAC Temporare\02 Out Of Question (Misere II).wav

Peak level 100.0 %
Track quality 100.0 %
Test CRC FDB7768A
Copy CRC FDB7768A
Track not present in AccurateRip database
Copy OK

Track 3

Filename G:\EAC Temporare\03 God.wav

Pre-gap length 0:00:02.00

Peak level 100.0 %
Track quality 100.0 %
Test CRC DA732D46
Copy CRC DA732D46
Track not present in AccurateRip database
Copy OK

Track 4

Filename G:\EAC Temporare\04 MasterSlave.wav

Pre-gap length 0:00:02.00

Peak level 100.0 %
Track quality 100.0 %
Test CRC D65CC8D6
Copy CRC D65CC8D6
Track not present in AccurateRip database
Copy OK

Track 5

Filename G:\EAC Temporare\05 La Puissance.wav

Pre-gap length 0:00:02.00

Peak level 100.0 %
Track quality 100.0 %
Test CRC 9063EAE3
Copy CRC 9063EAE3
Track not present in AccurateRip database
Copy OK

Track 6

Filename G:\EAC Temporare\06 Knowledge.wav

Pre-gap length 0:00:02.00

Peak level 100.0 %
Track quality 99.9 %
Test CRC 69644848
Copy CRC 69644848
Track not present in AccurateRip database
Copy OK

Track 7

Filename G:\EAC Temporare\07 Oorlog.wav

Pre-gap length 0:00:02.00

Peak level 97.0 %
Track quality 99.9 %
Test CRC E114D629
Copy CRC E114D629
Track not present in AccurateRip database
Copy OK

Track 8

Filename G:\EAC Temporare\08 Fantasm I.wav

Pre-gap length 0:00:02.00

Peak level 100.0 %
Track quality 100.0 %
Test CRC 6BCAEE1D
Copy CRC 6BCAEE1D
Track not present in AccurateRip database
Copy OK

Track 9

Filename G:\EAC Temporare\09 Fantasm II.wav

Peak level 100.0 %
Track quality 100.0 %
Test CRC D02BBBFA
Copy CRC D02BBBFA
Track not present in AccurateRip database
Copy OK

Track 10

Filename G:\EAC Temporare\10 The Binding Of Destruction.wav

Pre-gap length 0:00:02.00

Peak level 100.0 %
Track quality 100.0 %
Test CRC E6755AD4
Copy CRC E6755AD4
Track not present in AccurateRip database
Copy OK

Track 11

Filename G:\EAC Temporare\11 Dark Alchemy (Harsh Floor Mix).wav

Pre-gap length 0:00:02.00

Peak level 100.0 %
Track quality 100.0 %
Test CRC E127F641
Copy CRC E127F641
Track not present in AccurateRip database
Copy OK

Track 12

Filename G:\EAC Temporare\12 Misere.wav

Pre-gap length 0:00:02.00

Peak level 100.0 %
Track quality 100.0 %
Test CRC CC616105
Copy CRC CC616105
Track not present in AccurateRip database
Copy OK

Track 13

Filename G:\EAC Temporare\13 Oorlog (Het Verdrag Van Melle Mix).wav

Pre-gap length 0:00:02.00

Peak level 100.0 %
Track quality 100.0 %
Test CRC 1DEF9934
Copy CRC 1DEF9934
Track not present in AccurateRip database
Copy OK

Track 14

Filename G:\EAC Temporare\14 E.G.O.wav

Pre-gap length 0:00:02.00

Peak level 100.0 %
Track quality 100.0 %
Test CRC 0C5BC9B5
Copy CRC 0C5BC9B5
Track not present in AccurateRip database
Copy OK

None of the tracks are present in the AccurateRip database

No errors occurred

End of status report


REM GENRE "Industrial, Ambient"
REM DATE 2002
REM DISCID BF0F1F0E
REM COMMENT "ExactAudioCopy v0.99pb4"
PERFORMER "Empusae"
TITLE "Funestus"
FILE "01 Agony (Misere I).wav" WAVE
TRACK 01 AUDIO
TITLE "Agony (Misere I)"
PERFORMER "Empusae"
INDEX 01 00:00:00
FILE "02 Out Of Question (Misere II).wav" WAVE
TRACK 02 AUDIO
TITLE "Out Of Question (Misere II)"
PERFORMER "Empusae"
INDEX 01 00:00:00
TRACK 03 AUDIO
TITLE "God"
PERFORMER "Empusae"
INDEX 00 05:17:73
FILE "03 God.wav" WAVE
INDEX 01 00:00:00
TRACK 04 AUDIO
TITLE "MasterSlave"
PERFORMER "Empusae"
INDEX 00 05:33:01
FILE "04 MasterSlave.wav" WAVE
INDEX 01 00:00:00
TRACK 05 AUDIO
TITLE "La Puissance"
PERFORMER "Empusae"
INDEX 00 04:04:15
FILE "05 La Puissance.wav" WAVE
INDEX 01 00:00:00
TRACK 06 AUDIO
TITLE "Knowledge"
PERFORMER "Empusae"
INDEX 00 06:13:09
FILE "06 Knowledge.wav" WAVE
INDEX 01 00:00:00
TRACK 07 AUDIO
TITLE "Oorlog"
PERFORMER "Empusae"
INDEX 00 04:34:46
FILE "07 Oorlog.wav" WAVE
INDEX 01 00:00:00
TRACK 08 AUDIO
TITLE "Fantasm I"
PERFORMER "Empusae"
INDEX 00 06:48:09
FILE "08 Fantasm I.wav" WAVE
INDEX 01 00:00:00
FILE "09 Fantasm II.wav" WAVE
TRACK 09 AUDIO
TITLE "Fantasm II"
PERFORMER "Empusae"
INDEX 01 00:00:00
TRACK 10 AUDIO
TITLE "The Binding Of Destruction"
PERFORMER "Empusae"
INDEX 00 03:33:01
FILE "10 The Binding Of Destruction.wav" WAVE
INDEX 01 00:00:00
TRACK 11 AUDIO
TITLE "Dark Alchemy (Harsh Floor Mix)"
PERFORMER "Empusae"
INDEX 00 04:20:62
FILE "11 Dark Alchemy (Harsh Floor Mix).wav" WAVE
INDEX 01 00:00:00
TRACK 12 AUDIO
TITLE "Misere"
PERFORMER "Empusae"
INDEX 00 05:12:67
FILE "12 Misere.wav" WAVE
INDEX 01 00:00:00
TRACK 13 AUDIO
TITLE "Oorlog (Het Verdrag Van Melle Mix)"
PERFORMER "Empusae"
INDEX 00 03:54:05
FILE "13 Oorlog (Het Verdrag Van Melle Mix).wav" WAVE
INDEX 01 00:00:00
TRACK 14 AUDIO
TITLE "E.G.O"
PERFORMER "Empusae"
INDEX 00 06:02:72
FILE "14 E.G.O.wav" WAVE
INDEX 01 00:00:00

Год выпуска: 2003
Продолжительность: 00:09:20
Треклист:

01. Ankou (04:45)
02. Lemures (04:35)
Vinyl: Brand new, first play.
Post-processing: Minor manual click removal, normalization.
TT: VPI Traveler
Cartridge: Dynavector DV10X5
Preamp: Bugle2
Device: Roland UA-55 Quad Capture
Format: 24/96.
Год выпуска: 2003
Продолжительность: 01:16:22
Треклист:

01. Beauty Of Decay (04:33)
02. They're So Sweet (05:23)
03. Ritual Evil (09:14)
04. Game Of Confession (08:24)
05. Assassination (06:53)
06. Dark Alchemy (Remix By Ah Cama-Sotz) (06:14)
07. Oblivion (Remix By Displacer) (05:23)
08. Beauty Of Decay (Remix By Flint Glass) (05:25)
09. Fantasm In Dub (Remix By Sonar) (03:27)
10. Goblins (Remix By Prospero) (05:31)
11. Home Pig (Remix By Synapscape) (05:14)
12. Melkor (Remix By This Morn' Omina) (05:27)
13. Tenebris For The Unborn (Remix By S:cage) (05:14)

Exact Audio Copy V0.99 prebeta 4 from 23. January 2008

EAC extraction logfile from 2. August 2008, 11:15

Empusae / Ritual Decay

Used drive : _NEC DVD_RW ND-3550A Adapter: 0 ID: 0

Read mode : Secure
Utilize accurate stream : Yes
Defeat audio cache : Yes
Make use of C2 pointers : No

Read offset correction : 48
Overread into Lead-In and Lead-Out : No
Fill up missing offset samples with silence : Yes
Delete leading and trailing silent blocks : No
Null samples used in CRC calculations : Yes
Used interface : Installed external ASPI interface
Gap handling : Appended to previous track

Used output format : User Defined Encoder
Selected bitrate : 1024 kBit/s
Quality : High
Add ID3 tag : No
Command line compressor : D:\Programs\Tools\_Exact Audio Copy\FLAC\FLAC.EXE
Additional command line options : -8 -V -T "ARTIST=%a" -T "TITLE=%t" -T "ALBUM=%g" -T "DATE=%y" -T "TRACKNUMBER=%n" -T "GENRE=%m" -T "COMMENT=%e" %s -o %d

TOC of the extracted CD

Track | Start | Length | Start sector | End sector
---------------------------------------------------------
1 | 0:00.00 | 4:33.34 | 0 | 20508
2 | 4:33.34 | 5:23.18 | 20509 | 44751
3 | 9:56.52 | 9:13.65 | 44752 | 86291
4 | 19:10.42 | 8:24.33 | 86292 | 124124
5 | 27:35.00 | 6:52.38 | 124125 | 155062
6 | 34:27.38 | 6:14.36 | 155063 | 183148
7 | 40:41.74 | 5:23.28 | 183149 | 207401
8 | 46:05.27 | 5:24.72 | 207402 | 231773
9 | 51:30.24 | 3:26.49 | 231774 | 247272
10 | 54:56.73 | 5:31.11 | 247273 | 272108
11 | 60:28.09 | 5:14.17 | 272109 | 295675
12 | 65:42.26 | 5:27.06 | 295676 | 320206
13 | 71:09.32 | 5:14.24 | 320207 | 343780

Track 1

Filename D:\Empusae - Ritual Decay\01 Beauty Of Decay.wav

Pre-gap length 0:00:02.00

Peak level 100.0 %
Track quality 100.0 %
Test CRC 9589AB91
Copy CRC 9589AB91
Track not present in AccurateRip database
Copy OK

Track 2

Filename D:\Empusae - Ritual Decay\02 They're So Sweet.wav

Pre-gap length 0:00:02.00

Peak level 100.0 %
Track quality 100.0 %
Test CRC 6E049D9B
Copy CRC 6E049D9B
Track not present in AccurateRip database
Copy OK

Track 3

Filename D:\Empusae - Ritual Decay\03 Ritual Evil.wav

Pre-gap length 0:00:02.00

Peak level 100.0 %
Track quality 99.9 %
Test CRC C827541B
Copy CRC C827541B
Track not present in AccurateRip database
Copy OK

Track 4

Filename D:\Empusae - Ritual Decay\04 Game Of Confession.wav

Pre-gap length 0:00:02.00

Peak level 100.0 %
Track quality 100.0 %
Test CRC 2314D73C
Copy CRC 2314D73C
Track not present in AccurateRip database
Copy OK

Track 5

Filename D:\Empusae - Ritual Decay\05 Assassination.wav

Pre-gap length 0:00:02.00

Peak level 100.0 %
Track quality 100.0 %
Test CRC 7BBE28BB
Copy CRC 7BBE28BB
Track not present in AccurateRip database
Copy OK

Track 6

Filename D:\Empusae - Ritual Decay\06 Dark Alchemy (Rmx by Ah Cama-Sotz).wav

Pre-gap length 0:00:02.00

Peak level 100.0 %
Track quality 100.0 %
Test CRC 43210F7C
Copy CRC 43210F7C
Track not present in AccurateRip database
Copy OK

Track 7

Filename D:\Empusae - Ritual Decay\07 Oblivion (Rmx by Displacer).wav

Pre-gap length 0:00:02.00

Peak level 100.0 %
Track quality 100.0 %
Test CRC ECE9723A
Copy CRC ECE9723A
Track not present in AccurateRip database
Copy OK

Track 8

Filename D:\Empusae - Ritual Decay\08 Beauty Of Decay (Rmx by Flint Glass).wav

Pre-gap length 0:00:02.00

Peak level 100.0 %
Track quality 100.0 %
Test CRC 74DCC78F
Copy CRC 74DCC78F
Track not present in AccurateRip database
Copy OK

Track 9

Filename D:\Empusae - Ritual Decay\09 Fantasm In Dub (Rmx by Sonar).wav

Pre-gap length 0:00:02.00

Peak level 100.0 %
Track quality 100.0 %
Test CRC B02473E8
Copy CRC B02473E8
Track not present in AccurateRip database
Copy OK

Track 10

Filename D:\Empusae - Ritual Decay\10 Goblins (Rmx by Prospero).wav

Pre-gap length 0:00:02.00

Peak level 100.0 %
Track quality 100.0 %
Test CRC 9E3E346A
Copy CRC 9E3E346A
Track not present in AccurateRip database
Copy OK

Track 11

Filename D:\Empusae - Ritual Decay\11 Home Pig (Rmx by Synapscape).wav

Pre-gap length 0:00:02.00

Peak level 100.0 %
Track quality 100.0 %
Test CRC C08865B0
Copy CRC C08865B0
Track not present in AccurateRip database
Copy OK

Track 12

Filename D:\Empusae - Ritual Decay\12 Melkor (Rmx by This Morn' Omina).wav

Pre-gap length 0:00:02.00

Peak level 100.0 %
Track quality 99.9 %
Test CRC 355BF65B
Copy CRC 355BF65B
Track not present in AccurateRip database
Copy OK

Track 13

Filename D:\Empusae - Ritual Decay\13 Tenebris For The Unborn (Rmx by s-cage).wav

Pre-gap length 0:00:02.00

Peak level 100.0 %
Track quality 100.0 %
Test CRC 4AEDCD3F
Copy CRC 4AEDCD3F
Track not present in AccurateRip database
Copy OK

None of the tracks are present in the AccurateRip database

No errors occurred

End of status report


REM GENRE Rhythmic Noise, Electro
REM DATE 2003
REM DISCID C811E70D
REM COMMENT ExactAudioCopy v0.99pb4
PERFORMER "Empusae"
TITLE "Ritual Decay"
FILE "01 Beauty Of Decay.flac" WAVE
TRACK 01 AUDIO
TITLE "Beauty Of Decay"
INDEX 01 00:00:00
FILE "02 They're So Sweet.flac" WAVE
TRACK 02 AUDIO
TITLE "They're So Sweet"
INDEX 00 00:00:00
INDEX 01 00:02:00
FILE "03 Ritual Evil.flac" WAVE
TRACK 03 AUDIO
TITLE "Ritual Evil"
INDEX 00 00:00:00
INDEX 01 00:02:00
FILE "04 Game Of Confession.flac" WAVE
TRACK 04 AUDIO
TITLE "Game Of Confession"
INDEX 00 00:00:00
INDEX 01 00:02:00
FILE "05 Assassination.flac" WAVE
TRACK 05 AUDIO
TITLE "Assassination"
INDEX 00 00:00:00
INDEX 01 00:02:00
FILE "06 Dark Alchemy (Rmx by Ah Cama-Sotz).flac" WAVE
TRACK 06 AUDIO
TITLE "Dark Alchemy (Rmx by Ah Cama-Sotz)"
INDEX 00 00:00:00
INDEX 01 00:02:00
FILE "07 Oblivion (Rmx by Displacer).flac" WAVE
TRACK 07 AUDIO
TITLE "Oblivion (Rmx by Displacer)"
INDEX 00 00:00:00
INDEX 01 00:02:00
FILE "08 Beauty Of Decay (Rmx by Flint Glass).flac" WAVE
TRACK 08 AUDIO
TITLE "Beauty Of Decay (Rmx by Flint Glass)"
INDEX 00 00:00:00
INDEX 01 00:02:00
FILE "09 Fantasm In Dub (Rmx by Sonar).flac" WAVE
TRACK 09 AUDIO
TITLE "Fantasm In Dub (Rmx by Sonar)"
INDEX 00 00:00:00
INDEX 01 00:02:00
FILE "10 Goblins (Rmx by Prospero).flac" WAVE
TRACK 10 AUDIO
TITLE "Goblins (Rmx by Prospero)"
INDEX 00 00:00:00
INDEX 01 00:02:00
FILE "11 Home Pig (Rmx by Synapscape).flac" WAVE
TRACK 11 AUDIO
TITLE "Home Pig (Rmx by Synapscape)"
INDEX 00 00:00:00
INDEX 01 00:02:00
FILE "12 Melkor (Rmx by This Morn' Omina).flac" WAVE
TRACK 12 AUDIO
TITLE "Melkor (Rmx by This Morn' Omina)"
INDEX 00 00:00:00
INDEX 01 00:02:00
FILE "13 Tenebris For The Unborn (Rmx by S-Cage).flac" WAVE
TRACK 13 AUDIO
TITLE "Tenebris For The Unborn (Rmx by Ss:Cage)"
INDEX 00 00:00:00
INDEX 01 00:02:00

Год выпуска: 2005
Продолжительность: 01:12:48
Треклист:

01. Orix (08:51)
02. Alkevar (10:31)
03. Ekro-Alakin (07:56)
04. Seygot (06:59)
05. Neupridem (07:10)
06. Urficae (07:27)
07. Lamer Urco (07:03)
08. Falmek (06:38)
09. Pijnzallick (10:13)

Exact Audio Copy V1.3 from 2. September 2016

EAC extraction logfile from 28. April 2019, 22:41

Empusae / Error 404: Metaphorical Loss

Used drive : TSSTcorpCDDVDW SH-224DB Adapter: 1 ID: 0

Read mode : Secure
Utilize accurate stream : Yes
Defeat audio cache : Yes
Make use of C2 pointers : No

Read offset correction : 6
Overread into Lead-In and Lead-Out : No
Fill up missing offset samples with silence : Yes
Delete leading and trailing silent blocks : No
Null samples used in CRC calculations : Yes
Used interface : Native Win32 interface for Win NT & 2000
Gap handling : Appended to previous track

Used output format : User Defined Encoder
Selected bitrate : 1024 kBit/s
Quality : High
Add ID3 tag : No
Command line compressor : C:\Program Files (x86)\Exact Audio Copy\Flac\flac.exe
Additional command line options : -8 -V -T "ARTIST=%artist%" -T "TITLE=%title%" -T "ALBUM=%albumtitle%" -T "DATE=%year%" -T "TRACKNUMBER=%tracknr%" -T "GENRE=%genre%" -T "PERFORMER=%albuminterpret%" -T "COMPOSER=%composer%" %haslyrics%--tag-from-file=LYRICS="%lyricsfile%"%haslyrics% -T "ALBUMARTIST=%albumartist%" -T "DISCNUMBER=%cdnumber%" -T "TOTALDISCS=%totalcds%" -T "TOTALTRACKS=%numtracks%" -T "COMMENT=%comment%" %source% -o %dest%

TOC of the extracted CD

Track | Start | Length | Start sector | End sector
---------------------------------------------------------
1 | 0:00.00 | 8:50.50 | 0 | 39799
2 | 8:50.50 | 10:31.09 | 39800 | 87133
3 | 19:21.59 | 7:55.43 | 87134 | 122801
4 | 27:17.27 | 6:59.30 | 122802 | 154256
5 | 34:16.57 | 7:09.59 | 154257 | 186490
6 | 41:26.41 | 7:26.63 | 186491 | 220003
7 | 48:53.29 | 7:03.34 | 220004 | 251762
8 | 55:56.63 | 6:38.09 | 251763 | 281621
9 | 62:34.72 | 10:12.66 | 281622 | 327587

Track 1

Filename C:\Empusae - 2005 - Error 404 - Metaphorical Loss\01 Empusae - Orix.wav

Pre-gap length 0:00:02.00

Peak level 83.9 %
Extraction speed 2.1 X
Track quality 100.0 %
Test CRC E7FEA0AA
Copy CRC E7FEA0AA
Cannot be verified as accurate (confidence 9) [2A859CC1], AccurateRip returned [630571AC] (AR v2)
Copy OK

Track 2

Filename C:\Empusae - 2005 - Error 404 - Metaphorical Loss\02 Empusae - Alkevar.wav

Pre-gap length 0:00:02.00

Peak level 90.4 %
Extraction speed 2.4 X
Track quality 99.9 %
Test CRC 85C65CE6
Copy CRC 85C65CE6
Cannot be verified as accurate (confidence 9) [00992632], AccurateRip returned [C4883CA4] (AR v2)
Copy OK

Track 3

Filename C:\Empusae - 2005 - Error 404 - Metaphorical Loss\03 Empusae - Ekro-Alakin.wav

Pre-gap length 0:00:02.00

Peak level 99.7 %
Extraction speed 2.8 X
Track quality 100.0 %
Test CRC 9F0310A6
Copy CRC 9F0310A6
Cannot be verified as accurate (confidence 9) [8A47FB4B], AccurateRip returned [77071842] (AR v2)
Copy OK

Track 4

Filename C:\Empusae - 2005 - Error 404 - Metaphorical Loss\04 Empusae - Seygot.wav

Pre-gap length 0:00:02.00

Peak level 99.7 %
Extraction speed 3.1 X
Track quality 100.0 %
Test CRC 6751B3F9
Copy CRC 6751B3F9
Cannot be verified as accurate (confidence 8) [F786D81E], AccurateRip returned [56D2035E] (AR v2)
Copy OK

Track 5

Filename C:\Empusae - 2005 - Error 404 - Metaphorical Loss\05 Empusae - Neupridem.wav

Pre-gap length 0:00:02.00

Peak level 99.7 %
Extraction speed 3.3 X
Track quality 100.0 %
Test CRC 1230CBF0
Copy CRC 1230CBF0
Cannot be verified as accurate (confidence 8) [651BEA37], AccurateRip returned [3C54C9C4] (AR v2)
Copy OK

Track 6

Filename C:\Empusae - 2005 - Error 404 - Metaphorical Loss\06 Empusae - Urficae.wav

Pre-gap length 0:00:02.00

Peak level 99.7 %
Extraction speed 3.1 X
Track quality 99.9 %
Test CRC 9D6E944C
Copy CRC 9D6E944C
Cannot be verified as accurate (confidence 8) [7EE6BE88], AccurateRip returned [AA8927DC] (AR v2)
Copy OK

Track 7

Filename C:\Empusae - 2005 - Error 404 - Metaphorical Loss\07 Empusae - Lamer Urco.wav

Pre-gap length 0:00:02.00

Peak level 99.7 %
Extraction speed 3.7 X
Track quality 100.0 %
Test CRC 50D42C09
Copy CRC 50D42C09
Cannot be verified as accurate (confidence 9) [146E470D], AccurateRip returned [96BD6F2D] (AR v2)
Copy OK

Track 8

Filename C:\Empusae - 2005 - Error 404 - Metaphorical Loss\08 Empusae - Falmek.wav

Pre-gap length 0:00:02.00

Peak level 99.7 %
Extraction speed 3.9 X
Track quality 100.0 %
Test CRC 809C3B82
Copy CRC 809C3B82
Cannot be verified as accurate (confidence 9) [9257C21C], AccurateRip returned [30C2A97D] (AR v2)
Copy OK

Track 9

Filename C:\Empusae - 2005 - Error 404 - Metaphorical Loss\09 Empusae - Pijnzallick.wav

Pre-gap length 0:00:02.00

Peak level 99.7 %
Extraction speed 3.7 X
Track quality 99.9 %
Test CRC 21AAD9A0
Copy CRC 21AAD9A0
Cannot be verified as accurate (confidence 7) [94572E35], AccurateRip returned [7184DF7C] (AR v2)
Copy OK

No tracks could be verified as accurate
You may have a different pressing from the one(s) in the database

No errors occurred

End of status report

---- CUETools DB Plugin V2.1.6

[CTDB TOCID: VSHt_mGPrMXws5.tCTlp9E4g6r0-] found
Submit result: VSHt_mGPrMXws5.tCTlp9E4g6r0- has been confirmed
Track | CTDB Status
1 | (13/14) Accurately ripped
2 | (14/14) Accurately ripped
3 | (14/14) Accurately ripped
4 | (14/14) Accurately ripped
5 | (14/14) Accurately ripped
6 | (14/14) Accurately ripped
7 | (14/14) Accurately ripped
8 | (14/14) Accurately ripped
9 | (14/14) Accurately ripped

==== Log checksum 53AEEA23708D016AE4FA6E80A026372962E0C354A723FC08C7437D8FCD1B5C54 ====


REM GENRE Electronic
REM DATE 2005
REM DISCID 8A110F09
REM COMMENT "ExactAudioCopy v0.99pb5"
FILE "01. Orix.wav" WAVE
TRACK 01 AUDIO
INDEX 01 00:00:00
TRACK 02 AUDIO
INDEX 00 08:48:50
FILE "02. Alkevar.wav" WAVE
INDEX 01 00:00:00
TRACK 03 AUDIO
INDEX 00 10:29:09
FILE "03. Ekro-Alakin.wav" WAVE
INDEX 01 00:00:00
TRACK 04 AUDIO
INDEX 00 07:53:43
FILE "04. Seygot.wav" WAVE
INDEX 01 00:00:00
TRACK 05 AUDIO
INDEX 00 06:57:30
FILE "05. Neupridem.wav" WAVE
INDEX 01 00:00:00
TRACK 06 AUDIO
INDEX 00 07:07:59
FILE "06. Urficae.wav" WAVE
INDEX 01 00:00:00
TRACK 07 AUDIO
INDEX 00 07:24:63
FILE "07. Lamer Urco.wav" WAVE
INDEX 01 00:00:00
TRACK 08 AUDIO
INDEX 00 07:01:34
FILE "08. Falmek.wav" WAVE
INDEX 01 00:00:00
TRACK 09 AUDIO
INDEX 00 06:36:09
FILE "09. Pijnzallick.wav" WAVE
INDEX 01 00:00:00

Год выпуска: 2005
Продолжительность: 00:27:49
Треклист:

01. Mort D'Anges / Templiers / La Secte (16:44)
02. Resurrection (11:05)

Exact Audio Copy V0.99 prebeta 4 from 23. January 2008

EAC extraction logfile from 31. May 2010, 10:02

Empusae / Extra-Muros (Casterman)

Used drive : HL-DT-STDVD+-RW GSA-S10N Adapter: 1 ID: 0

Read mode : Secure
Utilize accurate stream : Yes
Defeat audio cache : Yes
Make use of C2 pointers : No

Read offset correction : 667
Overread into Lead-In and Lead-Out : No
Fill up missing offset samples with silence : Yes
Delete leading and trailing silent blocks : No
Null samples used in CRC calculations : Yes
Used interface : Installed external ASPI interface
Gap handling : Appended to previous track

Used output format : User Defined Encoder
Selected bitrate : 128 kBit/s
Quality : High
Add ID3 tag : No
Command line compressor : C:\Programme\Exact Audio Copy\Flac\flac.exe
Additional command line options : -V -8 -T "artist=%a" -T "title=%t" -T "album=%g" -T "date=%y" -T "tracknumber=%n" -T "genre=%m" %s

TOC of the extracted CD

Track | Start | Length | Start sector | End sector
---------------------------------------------------------
1 | 0:00.00 | 16:44.25 | 0 | 75324
2 | 16:44.25 | 11:05.30 | 75325 | 125229

Track 1

Filename Z:\media\tsh_rfs_500gb\rips\Empusae - 2005 Extra-Muros (Casterman) [flac]\01 - Mort D'Anges . Templiers . La Secte.wav

Pre-gap length 0:00:02.00

Peak level 99.9 %
Track quality 100.0 %
Test CRC DF42A94A
Copy CRC DF42A94A
Track not present in AccurateRip database
Copy OK

Track 2

Filename Z:\media\tsh_rfs_500gb\rips\Empusae - 2005 Extra-Muros (Casterman) [flac]\02 - Rйsurrection.wav

Peak level 99.9 %
Track quality 100.0 %
Test CRC B6EB3FBB
Copy CRC B6EB3FBB
Track not present in AccurateRip database
Copy OK

None of the tracks are present in the AccurateRip database

No errors occurred

End of status report


REM GENRE Electronic
REM DATE 2005
REM DISCID 09068502
REM COMMENT "ExactAudioCopy v0.99pb4"
PERFORMER "Empusae"
TITLE "Extra-Muros (Casterman)"
FILE "01 - Mort D'Anges . Templiers . La Secte.wav" WAVE
TRACK 01 AUDIO
TITLE "Mort D'Anges . Templiers . La Secte"
PERFORMER "Empusae"
INDEX 01 00:00:00
FILE "02 - Rйsurrection.wav" WAVE
TRACK 02 AUDIO
TITLE "Rйsurrection"
PERFORMER "Empusae"
INDEX 01 00:00:00

Год выпуска: 2007
Продолжительность: 00:22:54
Треклист:

01. Prenegativity (06:53)
02. Simple Black Lines In A Diagram (06:11)
03. Don't Trust The Dogs (09:50)

Exact Audio Copy V0.99 prebeta 4 from 23. January 2008

EAC extraction logfile from 2. October 2008, 7:22

Empusae + Nick Grey / Simple Black Lines In A Diagram

Used drive : _NEC DVD_RW ND-3550A Adapter: 0 ID: 0

Read mode : Secure
Utilize accurate stream : Yes
Defeat audio cache : Yes
Make use of C2 pointers : No

Read offset correction : 48
Overread into Lead-In and Lead-Out : No
Fill up missing offset samples with silence : Yes
Delete leading and trailing silent blocks : No
Null samples used in CRC calculations : Yes
Used interface : Installed external ASPI interface
Gap handling : Appended to previous track

Used output format : User Defined Encoder
Selected bitrate : 1024 kBit/s
Quality : High
Add ID3 tag : No
Command line compressor : D:\Programs\Tools\_Exact Audio Copy\FLAC\FLAC.EXE
Additional command line options : -8 -V -T "ARTIST=%a" -T "TITLE=%t" -T "ALBUM=%g" -T "DATE=%y" -T "TRACKNUMBER=%n" -T "GENRE=%m" -T "COMMENT=%e" %s -o %d

TOC of the extracted CD

Track | Start | Length | Start sector | End sector
---------------------------------------------------------
1 | 0:00.00 | 6:53.10 | 0 | 30984
2 | 6:53.10 | 6:11.13 | 30985 | 58822
3 | 13:04.23 | 9:50.03 | 58823 | 103075

Track 1

Filename G:\EAC Temporare\01 Prenegativity.wav

Pre-gap length 0:00:02.00

Peak level 100.0 %
Track quality 100.0 %
Test CRC F88F5392
Copy CRC F88F5392
Track not present in AccurateRip database
Copy OK

Track 2

Filename G:\EAC Temporare\02 Simple Black Lines In A Diagram.wav

Pre-gap length 0:00:02.11

Peak level 87.1 %
Track quality 100.0 %
Test CRC 64272161
Copy CRC 64272161
Track not present in AccurateRip database
Copy OK

Track 3

Filename G:\EAC Temporare\03 Don't Trust The Dogs.wav

Pre-gap length 0:00:01.72

Peak level 90.1 %
Track quality 100.0 %
Test CRC E6EA33FA
Copy CRC E6EA33FA
Track not present in AccurateRip database
Copy OK

None of the tracks are present in the AccurateRip database

No errors occurred

End of status report


REM GENRE Electro, Avantgarde, Ambient
REM DATE 2007
REM DISCID 21055E03
REM COMMENT ExactAudioCopy v0.99pb4
PERFORMER "Empusae + Nick Grey"
TITLE "Simple Black Lines In A Diagram"
FILE "01 Prenegativity.flac" WAVE
TRACK 01 AUDIO
TITLE "Prenegativity"
INDEX 01 00:00:00
FILE "02 Simple Black Lines In A Diagram.flac" WAVE
TRACK 02 AUDIO
TITLE "Simple Black Lines In A Diagram"
INDEX 00 00:00:00
INDEX 01 00:02:11
FILE "03 Don't Trust The Dogs.flac" WAVE
TRACK 03 AUDIO
TITLE "Don't Trust The Dogs"
INDEX 00 00:00:00
INDEX 01 00:01:72

Год выпуска: 2008
Продолжительность: 00:51:51
Треклист:

01. The Hatred Of Trees (15:47)
02. Undead Soil (06:53)
03. Fragments Of Cerebral Dimensions (10:36)
04. Hard Boiled Wonderland (Inspired By H. Murakami) (08:08)
05. Waanzin (10:27)

Exact Audio Copy V0.99 prebeta 4 from 23. January 2008

EAC extraction logfile from 22. October 2008, 8:35

Empusae / The Hatred Of Trees

Used drive : _NEC DVD_RW ND-3550A Adapter: 0 ID: 0

Read mode : Secure
Utilize accurate stream : Yes
Defeat audio cache : Yes
Make use of C2 pointers : No

Read offset correction : 48
Overread into Lead-In and Lead-Out : No
Fill up missing offset samples with silence : Yes
Delete leading and trailing silent blocks : No
Null samples used in CRC calculations : Yes
Used interface : Installed external ASPI interface
Gap handling : Appended to previous track

Used output format : User Defined Encoder
Selected bitrate : 1024 kBit/s
Quality : High
Add ID3 tag : No
Command line compressor : D:\Programs\Tools\_Exact Audio Copy\FLAC\FLAC.EXE
Additional command line options : -8 -V -T "ARTIST=%a" -T "TITLE=%t" -T "ALBUM=%g" -T "DATE=%y" -T "TRACKNUMBER=%n" -T "GENRE=%m" -T "COMMENT=%e" %s -o %d

TOC of the extracted CD

Track | Start | Length | Start sector | End sector
---------------------------------------------------------
1 | 0:00.00 | 15:46.52 | 0 | 71001
2 | 15:46.52 | 6:53.20 | 71002 | 101996
3 | 22:39.72 | 10:35.67 | 101997 | 149688
4 | 33:15.64 | 8:07.67 | 149689 | 186280
5 | 41:23.56 | 10:26.63 | 186281 | 233293

Track 1

Filename G:\EAC Temporare\01 The Hatred Of Trees.wav

Pre-gap length 0:00:02.00

Peak level 96.6 %
Track quality 99.9 %
Test CRC 040C44EB
Copy CRC 040C44EB
Track not present in AccurateRip database
Copy OK

Track 2

Filename G:\EAC Temporare\02 Undead Soil.wav

Pre-gap length 0:00:02.00

Peak level 93.5 %
Track quality 100.0 %
Test CRC 897F20CC
Copy CRC 897F20CC
Track not present in AccurateRip database
Copy OK

Track 3

Filename G:\EAC Temporare\03 Fragments Of Cerebral Dimensions.wav

Pre-gap length 0:00:01.05

Peak level 96.2 %
Track quality 99.9 %
Test CRC 8340A1A1
Copy CRC 8340A1A1
Track not present in AccurateRip database
Copy OK

Track 4

Filename G:\EAC Temporare\04 Hard Boiled Wonderland (Inspired by H. Murakami).wav

Pre-gap length 0:00:01.05

Peak level 96.2 %
Track quality 100.0 %
Test CRC 556F6B7A
Copy CRC 556F6B7A
Track not present in AccurateRip database
Copy OK

Track 5

Filename G:\EAC Temporare\05 Waanzin.wav

Pre-gap length 0:00:01.05

Peak level 96.2 %
Track quality 100.0 %
Test CRC 5EC8E1B0
Copy CRC 5EC8E1B0
Track not present in AccurateRip database
Copy OK

None of the tracks are present in the AccurateRip database

No errors occurred

End of status report


REM GENRE "Electro, Ambient"
REM DATE 2008
REM DISCID 4F0C2605
REM COMMENT "ExactAudioCopy v0.99pb4"
PERFORMER "Empusae"
TITLE "The Hatred Of Trees"
FILE "01 The Hatred Of Trees.wav" WAVE
TRACK 01 AUDIO
TITLE "The Hatred Of Trees"
PERFORMER "Empusae"
INDEX 01 00:00:00
FILE "02 Undead Soil.wav" WAVE
TRACK 02 AUDIO
TITLE "Undead Soil"
PERFORMER "Empusae"
INDEX 00 00:00:00
INDEX 01 00:02:00
FILE "03 Fragments Of Cerebral Dimensions.wav" WAVE
TRACK 03 AUDIO
TITLE "Fragments Of Cerebral Dimensions"
PERFORMER "Empusae"
INDEX 00 00:00:00
INDEX 01 00:01:05
FILE "04 Hard Boiled Wonderland (Inspired by H. Murakami).wav" WAVE
TRACK 04 AUDIO
TITLE "Hard Boiled Wonderland (Inspired by H. Murakami)"
PERFORMER "Empusae"
INDEX 00 00:00:00
INDEX 01 00:01:05
FILE "05 Waanzin.wav" WAVE
TRACK 05 AUDIO
TITLE "Waanzin"
PERFORMER "Empusae"
INDEX 00 00:00:00
INDEX 01 00:01:05

Год выпуска: 2009
Продолжительность: 01:11:56+01:10:27
Треклист:

CD1
01. Agony (Misere I) (01:50)
02. Out Of Question (Misere II) (05:18)
03. God (05:35)
04. Masterslave (04:04)
05. Knowledge (04:37)
06. Oorlog (06:44)
07. Fantasm I (01:32)
08. Fantasm II (03:31)
09. The Binding Of Destruction (04:20)
10. Beauty Of Decay (04:33)
11. They're So Sweet (05:23)
12. Ritual Evil (09:14)
13. Game Of Confession (08:24)
14. Assassination (06:51)

CD2
01. Extra-Muros (16:43)
02. Resurrection (11:04)
03. Epiceas (06:13)
04. Dark Alchemy (06:19)
05. Ceremony (05:20)
06. Melkor (05:39)
07. Tenebris For The Unborn (Live At Mfest 08 Feat. Thomas Hein And Xabec) (08:42)
08. Niflheim (Godlike) (Live At Mfest 08 Feat. Synapscape) (05:25)
09. Entering Oblivion (Live At Mfest 08 Feat. Roger Rotor And Salt) (05:02)

Exact Audio Copy V0.99 prebeta 5 from 4. May 2009

EAC extraction logfile from 28. November 2009, 15:11

Empusae / Mortusae

Used drive : TSSTcorpCDDVDW SH-S223F Adapter: 1 ID: 1

Read mode : Secure
Utilize accurate stream : Yes
Defeat audio cache : Yes
Make use of C2 pointers : No

Read offset correction : 6
Overread into Lead-In and Lead-Out : No
Fill up missing offset samples with silence : Yes
Delete leading and trailing silent blocks : No
Null samples used in CRC calculations : Yes
Used interface : Native Win32 interface for Win NT & 2000
Gap handling : Appended to previous track

Used output format : User Defined Encoder
Selected bitrate : 128 kBit/s
Quality : High
Add ID3 tag : No
Command line compressor : C:\Program Files (x86)\Exact Audio Copy\Flac\flac.exe
Additional command line options : -V -8 -T "artist=%a" -T "title=%t" -T "album=%g" -T "date=%y" -T "tracknumber=%n" -T "genre=%m" %s

TOC of the extracted CD

Track | Start | Length | Start sector | End sector
---------------------------------------------------------
1 | 0:00.00 | 1:50.07 | 0 | 8256
2 | 1:50.07 | 5:18.04 | 8257 | 32110
3 | 7:08.11 | 5:34.68 | 32111 | 57228
4 | 12:43.04 | 4:03.69 | 57229 | 75522
5 | 16:46.73 | 4:36.38 | 75523 | 96260
6 | 21:23.36 | 6:44.31 | 96261 | 126591
7 | 28:07.67 | 1:31.55 | 126592 | 133471
8 | 29:39.47 | 3:31.24 | 133472 | 149320
9 | 33:10.71 | 4:20.20 | 149321 | 168840
10 | 37:31.16 | 4:32.74 | 168841 | 189314
11 | 42:04.15 | 5:23.09 | 189315 | 213548
12 | 47:27.24 | 9:13.57 | 213549 | 255080
13 | 56:41.06 | 8:24.26 | 255081 | 292906
14 | 65:05.32 | 6:50.61 | 292907 | 323717

Track 1

Filename Z:\music\e\Empusae\2009 Mortusae [flac]\Empusae - 01 - Agony (Misиre I).wav

Pre-gap length 0:00:02.00

Peak level 86.4 %
Track quality 100.0 %
Test CRC 8ACA8B16
Copy CRC 8ACA8B16
Accurately ripped (confidence 1) [CE23F0C9]
Copy OK

Track 2

Filename Z:\music\e\Empusae\2009 Mortusae [flac]\Empusae - 02 - Out of Question (Misиre II).wav

Peak level 100.0 %
Track quality 100.0 %
Test CRC C0523548
Copy CRC C0523548
Accurately ripped (confidence 1) [10A91C3F]
Copy OK

Track 3

Filename Z:\music\e\Empusae\2009 Mortusae [flac]\Empusae - 03 - God.wav

Pre-gap length 0:00:02.00

Peak level 100.0 %
Track quality 100.0 %
Test CRC 141BB390
Copy CRC 141BB390
Accurately ripped (confidence 1) [AE0393F8]
Copy OK

Track 4

Filename Z:\music\e\Empusae\2009 Mortusae [flac]\Empusae - 04 - Masterslave.wav

Pre-gap length 0:00:02.00

Peak level 100.0 %
Track quality 100.0 %
Test CRC 4495C293
Copy CRC 4495C293
Accurately ripped (confidence 1) [89C30018]
Copy OK

Track 5

Filename Z:\music\e\Empusae\2009 Mortusae [flac]\Empusae - 05 - Knowledge.wav

Pre-gap length 0:00:02.00

Peak level 100.0 %
Track quality 100.0 %
Test CRC 2FC81B08
Copy CRC 2FC81B08
Accurately ripped (confidence 1) [BF626EAD]
Copy OK

Track 6

Filename Z:\music\e\Empusae\2009 Mortusae [flac]\Empusae - 06 - Oorlog.wav

Pre-gap length 0:00:02.00

Peak level 97.0 %
Track quality 100.0 %
Test CRC 6780AFA4
Copy CRC 6780AFA4
Accurately ripped (confidence 1) [1F903011]
Copy OK

Track 7

Filename Z:\music\e\Empusae\2009 Mortusae [flac]\Empusae - 07 - Fantasm I.wav

Pre-gap length 0:00:02.00

Peak level 100.0 %
Track quality 100.0 %
Test CRC 434467C8
Copy CRC 434467C8
Accurately ripped (confidence 1) [8084C931]
Copy OK

Track 8

Filename Z:\music\e\Empusae\2009 Mortusae [flac]\Empusae - 08 - Fantasm II.wav

Peak level 100.0 %
Track quality 100.0 %
Test CRC 26687688
Copy CRC 26687688
Accurately ripped (confidence 1) [A3282C9E]
Copy OK

Track 9

Filename Z:\music\e\Empusae\2009 Mortusae [flac]\Empusae - 09 - The Binding of Destruction.wav

Pre-gap length 0:00:02.00

Peak level 100.0 %
Track quality 100.0 %
Test CRC 7740B10B
Copy CRC 7740B10B
Accurately ripped (confidence 1) [6CE8915A]
Copy OK

Track 10

Filename Z:\music\e\Empusae\2009 Mortusae [flac]\Empusae - 10 - Beauty of Decay.wav

Pre-gap length 0:00:02.00

Peak level 100.0 %
Track quality 100.0 %
Test CRC EBE2D60A
Copy CRC EBE2D60A
Accurately ripped (confidence 1) [2DA92154]
Copy OK

Track 11

Filename Z:\music\e\Empusae\2009 Mortusae [flac]\Empusae - 11 - They're so Sweet.wav

Pre-gap length 0:00:02.00

Peak level 100.0 %
Track quality 100.0 %
Test CRC AEBC50D3
Copy CRC AEBC50D3
Accurately ripped (confidence 1) [9637C28B]
Copy OK

Track 12

Filename Z:\music\e\Empusae\2009 Mortusae [flac]\Empusae - 12 - Ritual Evil.wav

Pre-gap length 0:00:02.00

Peak level 100.0 %
Track quality 100.0 %
Test CRC 7EF58EF7
Copy CRC 7EF58EF7
Accurately ripped (confidence 1) [11678026]
Copy OK

Track 13

Filename Z:\music\e\Empusae\2009 Mortusae [flac]\Empusae - 13 - Game of Confession.wav

Pre-gap length 0:00:02.00

Peak level 100.0 %
Track quality 100.0 %
Test CRC 2AA6FFC9
Copy CRC 2AA6FFC9
Accurately ripped (confidence 1) [63CD3798]
Copy OK

Track 14

Filename Z:\music\e\Empusae\2009 Mortusae [flac]\Empusae - 14 - Assassination.wav

Pre-gap length 0:00:02.00

Peak level 100.0 %
Track quality 100.0 %
Test CRC 7732358A
Copy CRC 7732358A
Accurately ripped (confidence 1) [4273FFFB]
Copy OK

All tracks accurately ripped

No errors occurred

End of status report

---------------------------------------------------------------------------------------------------

Exact Audio Copy V0.99 prebeta 5 from 4. May 2009

EAC extraction logfile from 28. November 2009, 15:58

Empusae / Mortusae

Used drive : TSSTcorpCDDVDW SH-S223F Adapter: 1 ID: 1

Read mode : Secure
Utilize accurate stream : Yes
Defeat audio cache : Yes
Make use of C2 pointers : No

Read offset correction : 6
Overread into Lead-In and Lead-Out : No
Fill up missing offset samples with silence : Yes
Delete leading and trailing silent blocks : No
Null samples used in CRC calculations : Yes
Used interface : Native Win32 interface for Win NT & 2000
Gap handling : Appended to previous track

Used output format : User Defined Encoder
Selected bitrate : 128 kBit/s
Quality : High
Add ID3 tag : No
Command line compressor : C:\Program Files (x86)\Exact Audio Copy\Flac\flac.exe
Additional command line options : -V -8 -T "artist=%a" -T "title=%t" -T "album=%g" -T "date=%y" -T "tracknumber=%n" -T "genre=%m" %s

TOC of the extracted CD

Track | Start | Length | Start sector | End sector
---------------------------------------------------------
1 | 0:00.00 | 16:43.08 | 0 | 75232
2 | 16:43.08 | 11:03.45 | 75233 | 125002
3 | 27:46.53 | 6:13.29 | 125003 | 153006
4 | 34:00.07 | 6:19.18 | 153007 | 181449
5 | 40:19.25 | 5:20.33 | 181450 | 205482
6 | 45:39.58 | 5:38.50 | 205483 | 230882
7 | 51:18.33 | 8:42.26 | 230883 | 270058
8 | 60:00.59 | 5:25.13 | 270059 | 294446
9 | 65:25.72 | 5:01.45 | 294447 | 317066

Track 1

Filename Z:\music\e\Empusae\2009 Mortusae [flac]\Empusae - 01 - Extra-Muros.wav

Pre-gap length 0:00:02.00

Peak level 100.0 %
Track quality 100.0 %
Test CRC 29E882B0
Copy CRC 29E882B0
Accurately ripped (confidence 1) [2E1F4C6F]
Copy OK

Track 2

Filename Z:\music\e\Empusae\2009 Mortusae [flac]\Empusae - 02 - Rйsurrection.wav

Peak level 100.0 %
Track quality 100.0 %
Test CRC 3D666A34
Copy CRC 3D666A34
Accurately ripped (confidence 1) [701762E3]
Copy OK

Track 3

Filename Z:\music\e\Empusae\2009 Mortusae [flac]\Empusae - 03 - Epiceas.wav

Peak level 100.0 %
Track quality 100.0 %
Test CRC 9769D5B1
Copy CRC 9769D5B1
Accurately ripped (confidence 1) [52401683]
Copy OK

Track 4

Filename Z:\music\e\Empusae\2009 Mortusae [flac]\Empusae - 04 - Dark Alchemy.wav

Peak level 84.1 %
Track quality 100.0 %
Test CRC 97D3A513
Copy CRC 97D3A513
Accurately ripped (confidence 1) [F6BEA1D4]
Copy OK

Track 5

Filename Z:\music\e\Empusae\2009 Mortusae [flac]\Empusae - 05 - Ceremony (Empusae vs Converter).wav

Peak level 87.5 %
Track quality 99.9 %
Test CRC FD3C04BE
Copy CRC FD3C04BE
Accurately ripped (confidence 1) [84079D51]
Copy OK

Track 6

Filename Z:\music\e\Empusae\2009 Mortusae [flac]\Empusae - 06 - Melkor.wav

Peak level 100.0 %
Track quality 100.0 %
Test CRC 5C1AA492
Copy CRC 5C1AA492
Accurately ripped (confidence 1) [1DA92260]
Copy OK

Track 7

Filename Z:\music\e\Empusae\2009 Mortusae [flac]\Empusae - 07 - Tenebris for the Unborn (Live at Mfest 08 feat. Thomas Hein and Xabec).wav

Peak level 100.0 %
Track quality 99.9 %
Test CRC 232DFF9C
Copy CRC 232DFF9C
Accurately ripped (confidence 1) [D052662A]
Copy OK

Track 8

Filename Z:\music\e\Empusae\2009 Mortusae [flac]\Empusae - 08 - Niflheim (Godlike) (Live at Mfest 08 feat. Synapscape).wav

Peak level 100.0 %
Track quality 100.0 %
Test CRC ACE14F68
Copy CRC ACE14F68
Accurately ripped (confidence 1) [43BF5ECB]
Copy OK

Track 9

Filename Z:\music\e\Empusae\2009 Mortusae [flac]\Empusae - 09 - Entering Oblivion (Life at Mfest 08 feat. Roger Rotor and Salt).wav

Peak level 100.0 %
Track quality 100.0 %
Test CRC B3A388C9
Copy CRC B3A388C9
Accurately ripped (confidence 1) [16A79E15]
Copy OK

All tracks accurately ripped

No errors occurred

End of status report


REM GENRE "Rhythmic Noise"
REM DATE 2009
REM DISCID C510DC0E
REM COMMENT "ExactAudioCopy v0.99pb5"
FILE "01. Agony (Misere I).wav" WAVE
TRACK 01 AUDIO
FLAGS DCP
INDEX 01 00:00:00
FILE "02. Out Of Question (Misere II).wav" WAVE
TRACK 02 AUDIO
FLAGS DCP
INDEX 01 00:00:00
TRACK 03 AUDIO
FLAGS DCP
INDEX 00 05:16:04
FILE "03. God.wav" WAVE
INDEX 01 00:00:00
TRACK 04 AUDIO
FLAGS DCP
INDEX 00 05:32:68
FILE "04. Masterslave.wav" WAVE
INDEX 01 00:00:00
TRACK 05 AUDIO
FLAGS DCP
INDEX 00 04:01:69
FILE "05. Knowledge.wav" WAVE
INDEX 01 00:00:00
TRACK 06 AUDIO
FLAGS DCP
INDEX 00 04:34:38
FILE "06. Oorlog.wav" WAVE
INDEX 01 00:00:00
TRACK 07 AUDIO
FLAGS DCP
INDEX 00 06:42:31
FILE "07. Fantasm I.wav" WAVE
INDEX 01 00:00:00
FILE "08. Fantasm II.wav" WAVE
TRACK 08 AUDIO
FLAGS DCP
INDEX 01 00:00:00
TRACK 09 AUDIO
FLAGS DCP
INDEX 00 03:29:24
FILE "09. The Binding Of Destruction.wav" WAVE
INDEX 01 00:00:00
TRACK 10 AUDIO
FLAGS DCP
INDEX 00 04:18:20
FILE "10. Beauty Of Decay.wav" WAVE
INDEX 01 00:00:00
TRACK 11 AUDIO
FLAGS DCP
INDEX 00 04:30:74
FILE "11. They're So Sweet.wav" WAVE
INDEX 01 00:00:00
TRACK 12 AUDIO
FLAGS DCP
INDEX 00 05:21:09
FILE "12. Ritual Evil.wav" WAVE
INDEX 01 00:00:00
TRACK 13 AUDIO
FLAGS DCP
INDEX 00 09:11:57
FILE "13. Game Of Confession.wav" WAVE
INDEX 01 00:00:00
TRACK 14 AUDIO
FLAGS DCP
INDEX 00 08:22:26
FILE "14. Assassination.wav" WAVE
INDEX 01 00:00:00

--------------------------------------------------------------------------------------------

REM GENRE "Rhythmic Noise"
REM DATE 2009
REM DISCID 67108309
REM COMMENT "ExactAudioCopy v0.99pb5"
FILE "01. Extra-Muros.wav" WAVE
TRACK 01 AUDIO
INDEX 01 00:00:00
FILE "02. Resurrection.wav" WAVE
TRACK 02 AUDIO
INDEX 01 00:00:00
FILE "03. Epiceas.wav" WAVE
TRACK 03 AUDIO
INDEX 01 00:00:00
FILE "04. Dark Alchemy.wav" WAVE
TRACK 04 AUDIO
INDEX 01 00:00:00
FILE "05. Empusae vs. Converter - Ceremony.wav" WAVE
TRACK 05 AUDIO
INDEX 01 00:00:00
FILE "06. Melkor.wav" WAVE
TRACK 06 AUDIO
INDEX 01 00:00:00
FILE "07. Tenebris For The Unborn (Live At Mfest 08 Feat. Thomas Hein And Xabec).wav" WAVE
TRACK 07 AUDIO
INDEX 01 00:00:00
FILE "08. Niflheim (Godlike) (Live At Mfest 08 Feat. Synapscape).wav" WAVE
TRACK 08 AUDIO
INDEX 01 00:00:00
FILE "09. Entering Oblivion (Live At Mfest 08 Feat. Roger Rotor And Salt).wav" WAVE
TRACK 09 AUDIO
INDEX 01 00:00:00

Год выпуска: 2011
Продолжительность: 00:54:30
Треклист:

01. First Ornament (07:38)
02. Second Ornament (08:01)
03. Third Ornament (08:14)
04. Fourth Ornament (08:18)
05. Fifth Ornament (11:01)
06. Sixth Ornament (11:18)

Exact Audio Copy V1.0 beta 1 from 15. November 2010

EAC extraction logfile from 20. March 2011, 0:08

Empusae & Shinkiro / Organic.Aural.Ornaments

Used drive : TSSTcorpCDDVDW SH-S223C Adapter: 3 ID: 0

Read mode : Secure
Utilize accurate stream : Yes
Defeat audio cache : Yes
Make use of C2 pointers : No

Read offset correction : 697
Overread into Lead-In and Lead-Out : No
Fill up missing offset samples with silence : Yes
Delete leading and trailing silent blocks : No
Null samples used in CRC calculations : Yes
Used interface : Native Win32 interface for Win NT & 2000
Gap handling : Appended to previous track

Used output format : User Defined Encoder
Selected bitrate : 320 kBit/s
Quality : High
Add ID3 tag : No
Command line compressor : C:\Program Files (x86)\Exact Audio Copy\Flac\flac.exe
Additional command line options : -V -8 -T "artist=%a" -T "title=%t" -T "album=%g" -T "date=%y" -T "tracknumber=%n" -T "genre=%m" %s

TOC of the extracted CD

Track | Start | Length | Start sector | End sector
---------------------------------------------------------
1 | 0:00.00 | 7:38.00 | 0 | 34349
2 | 7:38.00 | 8:00.46 | 34350 | 70395
3 | 15:38.46 | 8:13.69 | 70396 | 107439
4 | 23:52.40 | 8:18.32 | 107440 | 144821
5 | 32:10.72 | 11:00.38 | 144822 | 194359
6 | 43:11.35 | 11:18.01 | 194360 | 245210

Track 1

Filename E:\EACrips\Empusae & Shinkiro - Organic.Aural.Ornaments\01 - Empusae & Shinkiro - First Ornament.wav

Pre-gap length 0:00:02.00

Peak level 91.2 %
Extraction speed 2.2 X
Track quality 100.0 %
Test CRC 2B84159B
Copy CRC 2B84159B
Track not present in AccurateRip database
Copy OK

Track 2

Filename E:\EACrips\Empusae & Shinkiro - Organic.Aural.Ornaments\02 - Empusae & Shinkiro - Second Ornament.wav

Pre-gap length 0:00:01.00

Peak level 96.0 %
Extraction speed 2.7 X
Track quality 100.0 %
Test CRC 49837F59
Copy CRC 49837F59
Track not present in AccurateRip database
Copy OK

Track 3

Filename E:\EACrips\Empusae & Shinkiro - Organic.Aural.Ornaments\03 - Empusae & Shinkiro - Third Ornament.wav

Pre-gap length 0:00:00.98

Peak level 96.4 %
Extraction speed 3.1 X
Track quality 100.0 %
Test CRC A323E706
Copy CRC A323E706
Track not present in AccurateRip database
Copy OK

Track 4

Filename E:\EACrips\Empusae & Shinkiro - Organic.Aural.Ornaments\04 - Empusae & Shinkiro - Fourth Ornament.wav

Pre-gap length 0:00:00.98

Peak level 96.0 %
Extraction speed 1.0 X
Track quality 99.9 %
Test CRC 7493DDB0
Copy CRC 7493DDB0
Track not present in AccurateRip database
Copy OK

Track 5

Filename E:\EACrips\Empusae & Shinkiro - Organic.Aural.Ornaments\05 - Empusae & Shinkiro - Fifth Ornament.wav

Pre-gap length 0:00:00.98

Peak level 96.0 %
Extraction speed 3.8 X
Track quality 100.0 %
Test CRC DB98DA28
Copy CRC DB98DA28
Track not present in AccurateRip database
Copy OK

Track 6

Filename E:\EACrips\Empusae & Shinkiro - Organic.Aural.Ornaments\06 - Empusae & Shinkiro - Sixth Ornament.wav

Pre-gap length 0:00:00.98

Peak level 67.9 %
Extraction speed 4.2 X
Track quality 100.0 %
Test CRC 7327C1C6
Copy CRC 7327C1C6
Track not present in AccurateRip database
Copy OK

None of the tracks are present in the AccurateRip database

No errors occurred

End of status report

==== Log checksum B79A32E23D63E641899220CE49225B82BC5E69B2F9901DC3B3DA4915C24ABD90 ====


REM GENRE Industrial
REM DATE 2011
REM DISCID 470CC506
REM COMMENT "ExactAudioCopy v1.0b1"
FILE "01 - Empusae & Shinkiro - First Ornament.wav" WAVE
TRACK 01 AUDIO
INDEX 01 00:00:00
TRACK 02 AUDIO
INDEX 00 07:37:00
FILE "02 - Empusae & Shinkiro - Second Ornament.wav" WAVE
INDEX 01 00:00:00
TRACK 03 AUDIO
INDEX 00 07:59:47
FILE "03 - Empusae & Shinkiro - Third Ornament.wav" WAVE
INDEX 01 00:00:00
TRACK 04 AUDIO
INDEX 00 08:12:70
FILE "04 - Empusae & Shinkiro - Fourth Ornament.wav" WAVE
INDEX 01 00:00:00
TRACK 05 AUDIO
INDEX 00 08:17:33
FILE "05 - Empusae & Shinkiro - Fifth Ornament.wav" WAVE
INDEX 01 00:00:00
TRACK 06 AUDIO
INDEX 00 10:59:39
FILE "06 - Empusae & Shinkiro - Sixth Ornament.wav" WAVE
INDEX 01 00:00:00

Год выпуска: 2012
Продолжительность: 00:51:10
Треклист:

01. One Of The Same (feat. Ordo Rosarius Equilibrio) (08:56)
02. Deceivious Water (feat. Arcana) (05:42)
03. Dissection Of Purity (feat. In Slaughter Natives) (07:50)
04. La Riviere Noire (06:59)
05. Seven Types Of Ambiguity (feat. Nick Grey) (09:19)
06. Kralizec (12:24)

Exact Audio Copy V1.0 beta 3 from 29. August 2011

EAC extraction logfile from 26. May 2013, 4:19

Empusae / Symbiosis

Used drive : MATSHITADVD-RAM UJ890AS Adapter: 0 ID: 1

Read mode : Secure
Utilize accurate stream : Yes
Defeat audio cache : Yes
Make use of C2 pointers : No

Read offset correction : 102
Overread into Lead-In and Lead-Out : No
Fill up missing offset samples with silence : Yes
Delete leading and trailing silent blocks : No
Null samples used in CRC calculations : Yes
Used interface : Native Win32 interface for Win NT & 2000
Gap handling : Appended to previous track

Used output format : User Defined Encoder
Selected bitrate : 1024 kBit/s
Quality : High
Add ID3 tag : No
Command line compressor : C:\Users\Loxapac\Desktop\Exact Audio Copy\FLAC\FLAC.EXE
Additional command line options : -6 -V -T "ARTIST=%artist%" -T "TITLE=%title%" -T "ALBUM=%albumtitle%" -T "DATE=%year%" -T "TRACKNUMBER=%tracknr%" -T "GENRE=%genre%" -T "COMMENT=%comment%" -T "BAND=%albuminterpret%" -T "ALBUMARTIST=%albuminterpret%" -T "COMPOSER=%composer%" %haslyrics%--tag-from-file=LYRICS="%lyricsfile%"%haslyrics% -T "DISCNUMBER=%cdnumber%" -T "TOTALDISCS=%totalcds%" -T "TOTALTRACKS=%numtracks%" %hascover%--picture="%coverfile%"%hascover% %source% -o %dest%

TOC of the extracted CD

Track | Start | Length | Start sector | End sector
---------------------------------------------------------
1 | 0:00.00 | 8:56.03 | 0 | 40202
2 | 8:56.03 | 5:42.01 | 40203 | 65853
3 | 14:38.04 | 7:49.66 | 65854 | 101094
4 | 22:27.70 | 6:58.38 | 101095 | 132482
5 | 29:26.33 | 9:19.15 | 132483 | 174422
6 | 38:45.48 | 12:23.44 | 174423 | 230191

Track 1

Filename C:\Users\Loxapac\Desktop\Exact Audio Copy\Empusae - Symbiosis (flac)\01 - Empusae feat. Ordo Rosarius Equilibrio - One of the Same.wav

Pre-gap length 0:00:02.00

Peak level 94.6 %
Extraction speed 1.7 X
Track quality 100.0 %
Test CRC 7E5E8818
Copy CRC 7E5E8818
Accurately ripped (confidence 1) [20661FAB] (AR v2)
Copy OK

Track 2

Filename C:\Users\Loxapac\Desktop\Exact Audio Copy\Empusae - Symbiosis (flac)\02 - Empusae feat. Arcana - Deceivious Water.wav

Pre-gap length 0:00:01.37

Peak level 94.4 %
Extraction speed 1.9 X
Track quality 100.0 %
Test CRC A7B72DF3
Copy CRC A7B72DF3
Accurately ripped (confidence 1) [CFC6A529] (AR v2)
Copy OK

Track 3

Filename C:\Users\Loxapac\Desktop\Exact Audio Copy\Empusae - Symbiosis (flac)\03 - Empusae feat. In Slaughter Natives - Dissection of Purity.wav

Pre-gap length 0:00:01.37

Peak level 94.9 %
Extraction speed 2.2 X
Track quality 100.0 %
Test CRC FE7025CE
Copy CRC FE7025CE
Accurately ripped (confidence 1) [351F8E37] (AR v2)
Copy OK

Track 4

Filename C:\Users\Loxapac\Desktop\Exact Audio Copy\Empusae - Symbiosis (flac)\04 - Empusae - La Rivière Noire.wav

Pre-gap length 0:00:01.37

Peak level 83.2 %
Extraction speed 2.4 X
Track quality 100.0 %
Test CRC 3A08CF16
Copy CRC 3A08CF16
Accurately ripped (confidence 1) [C0B38E5C] (AR v2)
Copy OK

Track 5

Filename C:\Users\Loxapac\Desktop\Exact Audio Copy\Empusae - Symbiosis (flac)\05 - Empusae feat. Nick Grey - Seven Types of Ambiguity.wav

Pre-gap length 0:00:01.37

Peak level 84.2 %
Extraction speed 2.6 X
Track quality 100.0 %
Test CRC CC103826
Copy CRC CC103826
Accurately ripped (confidence 1) [E95A7836] (AR v2)
Copy OK

Track 6

Filename C:\Users\Loxapac\Desktop\Exact Audio Copy\Empusae - Symbiosis (flac)\06 - Empusae - Kralizec.wav

Pre-gap length 0:00:01.37

Peak level 77.4 %
Extraction speed 3.0 X
Track quality 100.0 %
Test CRC 2BED7488
Copy CRC 2BED7488
Accurately ripped (confidence 1) [E4A640F9] (AR v2)
Copy OK

All tracks accurately ripped

No errors occurred

End of status report

---- CUETools DB Plugin V2.1.3

[CTDB TOCID: PHYhRiZ9IYrFWhSka0VghNaJjzc-] found, Submit result: PHYhRiZ9IYrFWhSka0VghNaJjzc- has been confirmed
[8aa024d1] (2/2) Accurately ripped

==== Log checksum 39117301C1F2D2F692D16D52EB7D13EF144DEEECC1FEDA6CC7E24BC18E095451 ====


REM DATE 2012
REM DISCID 570BFD06
REM COMMENT "ExactAudioCopy v1.0b3"
PERFORMER "Empusae"
TITLE "Symbiosis"
FILE "01 - Empusae feat. Ordo Rosarius Equilibrio - One of the Same.wav" WAVE
TRACK 01 AUDIO
TITLE "One of the Same"
PERFORMER "Empusae feat. Ordo Rosarius Equilibrio"
INDEX 01 00:00:00
TRACK 02 AUDIO
TITLE "Deceivious Water"
PERFORMER "Empusae feat. Arcana"
INDEX 00 08:54:41
FILE "02 - Empusae feat. Arcana - Deceivious Water.wav" WAVE
INDEX 01 00:00:00
TRACK 03 AUDIO
TITLE "Dissection of Purity"
PERFORMER "Empusae feat. In Slaughter Natives"
INDEX 00 05:40:39
FILE "03 - Empusae feat. In Slaughter Natives - Dissection of Purity.wav" WAVE
INDEX 01 00:00:00
TRACK 04 AUDIO
TITLE "La Riviиre Noire"
PERFORMER "Empusae"
INDEX 00 07:48:29
FILE "04 - Empusae - La Riviиre Noire.wav" WAVE
INDEX 01 00:00:00
TRACK 05 AUDIO
TITLE "Seven Types of Ambiguity"
PERFORMER "Empusae feat. Nick Grey"
INDEX 00 06:57:01
FILE "05 - Empusae feat. Nick Grey - Seven Types of Ambiguity.wav" WAVE
INDEX 01 00:00:00
TRACK 06 AUDIO
TITLE "Kralizec"
PERFORMER "Empusae"
INDEX 00 09:17:53
FILE "06 - Empusae - Kralizec.wav" WAVE
INDEX 01 00:00:00

Год выпуска: 2013
Продолжительность: 00:53:48
Треклист:

01. Ritual For Saille (08:11)
02. Sphere Des Bois (14:49)
03. Into The Abyss Of The Forest (08:40)
04. Cadence Chamanique (08:48)
05. Dirge (06:55)
06. Rutsu (06:25)

Exact Audio Copy V1.0 beta 3 from 29. August 2011

EAC extraction logfile from 25. November 2013, 19:07

Empusae / Sphere From The Woods

Used drive : TSSTcorpCDDVDW SH-222BB Adapter: 1 ID: 0

Read mode : Secure
Utilize accurate stream : Yes
Defeat audio cache : Yes
Make use of C2 pointers : No

Read offset correction : 6
Overread into Lead-In and Lead-Out : No
Fill up missing offset samples with silence : Yes
Delete leading and trailing silent blocks : No
Null samples used in CRC calculations : Yes
Used interface : Native Win32 interface for Win NT & 2000
Gap handling : Appended to previous track

Used output format : User Defined Encoder
Selected bitrate : 1024 kBit/s
Quality : High
Add ID3 tag : No
Command line compressor : C:\Program Files (x86)\Exact Audio Copy\FLAC\FLAC.EXE
Additional command line options : -8 -V -T "ARTIST=%artist%" -T "TITLE=%title%" -T "ALBUM=%albumtitle%" -T "DATE=%year%" -T "TRACKNUMBER=%tracknr%" -T "GENRE=%genre%" -T "PERFORMER=%albuminterpret%" -T "COMPOSER=%composer%" %haslyrics%--tag-from-file=LYRICS="%lyricsfile%"%haslyrics% -T "ALBUMARTIST=%albumartist%" -T "DISCNUMBER=%cdnumber%" -T "TOTALDISCS=%totalcds%" -T "TOTALTRACKS=%numtracks%" -T "COMMENT=%comment%" %source% -o %dest%

TOC of the extracted CD

Track | Start | Length | Start sector | End sector
---------------------------------------------------------
1 | 0:00.00 | 8:11.15 | 0 | 36839
2 | 8:11.15 | 14:49.28 | 36840 | 103542
3 | 23:00.43 | 8:39.41 | 103543 | 142508
4 | 31:40.09 | 8:47.68 | 142509 | 182101
5 | 40:28.02 | 6:55.04 | 182102 | 213230
6 | 47:23.06 | 6:24.52 | 213231 | 242082

Track 1

Filename D:\rip\Empusae 2013 - Sphere From The Woods [cd-flac]\01 - Ritual For Saille.wav

Pre-gap length 0:00:02.00

Peak level 96.5 %
Extraction speed 4.9 X
Track quality 100.0 %
Test CRC BC097C61
Copy CRC BC097C61
Accurately ripped (confidence 1) [44D98D99] (AR v2)
Copy OK

Track 2

Filename D:\rip\Empusae 2013 - Sphere From The Woods [cd-flac]\02 - Sphère Des Bois.wav

Peak level 86.0 %
Extraction speed 6.5 X
Track quality 100.0 %
Test CRC BF705F68
Copy CRC BF705F68
Accurately ripped (confidence 1) [35AF2658] (AR v2)
Copy OK

Track 3

Filename D:\rip\Empusae 2013 - Sphere From The Woods [cd-flac]\03 - Into The Abyss Of The Forest.wav

Peak level 53.1 %
Extraction speed 6.6 X
Track quality 99.9 %
Test CRC 9F90111E
Copy CRC 9F90111E
Accurately ripped (confidence 1) [B5EAF18A] (AR v2)
Copy OK

Track 4

Filename D:\rip\Empusae 2013 - Sphere From The Woods [cd-flac]\04 - Cadence Chamanique.wav

Peak level 96.2 %
Extraction speed 8.1 X
Track quality 100.0 %
Test CRC 27F10475
Copy CRC 27F10475
Accurately ripped (confidence 1) [2DA98335] (AR v2)
Copy OK

Track 5

Filename D:\rip\Empusae 2013 - Sphere From The Woods [cd-flac]\05 - Dirge.wav

Peak level 96.2 %
Extraction speed 8.4 X
Track quality 100.0 %
Test CRC D58EA705
Copy CRC D58EA705
Accurately ripped (confidence 1) [34A56ABA] (AR v2)
Copy OK

Track 6

Filename D:\rip\Empusae 2013 - Sphere From The Woods [cd-flac]\06 - Rutsu.wav

Peak level 96.3 %
Extraction speed 8.8 X
Track quality 100.0 %
Test CRC 52CDB455
Copy CRC 52CDB455
Accurately ripped (confidence 1) [66656387] (AR v2)
Copy OK

All tracks accurately ripped

No errors occurred

End of status report

==== Log checksum 38DCF023F964592D2763FC496EB7945E20AD7926578B89BA3DEC97A10743FA11 ====


REM GENRE "Dark Ambient"
REM DATE 2013
REM DISCID 480C9B06
REM COMMENT "ExactAudioCopy v1.0b3"
PERFORMER "Empusae"
TITLE "Sphere From The Woods"
FILE "01 - Ritual For Saille.wav" WAVE
TRACK 01 AUDIO
TITLE "Ritual For Saille"
PERFORMER "Empusae"
INDEX 01 00:00:00
FILE "02 - Sphиre Des Bois.wav" WAVE
TRACK 02 AUDIO
TITLE "Sphиre Des Bois"
PERFORMER "Empusae"
INDEX 01 00:00:00
FILE "03 - Into The Abyss Of The Forest.wav" WAVE
TRACK 03 AUDIO
TITLE "Into The Abyss Of The Forest"
PERFORMER "Empusae"
INDEX 01 00:00:00
FILE "04 - Cadence Chamanique.wav" WAVE
TRACK 04 AUDIO
TITLE "Cadence Chamanique"
PERFORMER "Empusae"
INDEX 01 00:00:00
FILE "05 - Dirge.wav" WAVE
TRACK 05 AUDIO
TITLE "Dirge"
PERFORMER "Empusae"
INDEX 01 00:00:00
FILE "06 - Rutsu.wav" WAVE
TRACK 06 AUDIO
TITLE "Rutsu"
PERFORMER "Empusae"
INDEX 01 00:00:00

Год выпуска: 2014
Продолжительность: 01:01:03
Треклист:

01. Second Ornament (08:08)
02. Sphère Des Bois (14:42)
03. Seven Types Of Ambiguity (08:54)
04. Quantum Daimon (07:13)
05. Consanguinous Pain (06:15)
06. Dirge (07:21)
07. One And The Same (08:30)
Год выпуска: 2015
Продолжительность: 00:49:10
Треклист:

01. Length Of Decay (13:27)
02. Verlies Van Het Licht (11:57)
03. Basalt (06:41)
04. Onzinnig Bestaan Van Vergetelheid (09:13)
05. Eindpunt Van Het Streven (07:52)

-----------------------

DON'T MODIFY THIS FILE

-----------------------

PERFORMER: auCDtect Task Manager, ver. 1.5.1RC6 build 1.5.1.7
Copyright (c) 2008-2010 y-soft. All rights reserved
http://y-soft.org

ANALYZER: auCDtect: CD records authenticity detector, version 0.8.2
Copyright (c) 2004 Oleg Berngardt. All rights reserved.
Copyright (c) 2004 Alexander Djourik. All rights reserved.

FILE: 05. Eindpunt Van Het Streven.flac
Size: 40398277 Hash: 09B5BEBEEF23863B83FD62B879430FF8 Accuracy: -m0
Conclusion: CDDA 100%
Signature: B207A9FF90C075F2752D7DF253B4FFA53516C431
FILE: 04. Onzinnig Bestaan Van Vergetelheid.flac
Size: 50435083 Hash: D0CFD0FC5A4BCE89EDB5765116D95445 Accuracy: -m0
Conclusion: CDDA 100%
Signature: 31EB7068A17E835974B502BB1FBA34A4D56CD848
FILE: 03. Basalt.flac
Size: 41468771 Hash: 1DCFC0808063F4D049BC2FE14845336D Accuracy: -m0
Conclusion: CDDA 100%
Signature: 1D7563FC0D9A53F3D88B8164CD4B7DD5AEA39941
FILE: 02. Verlies Van Het Licht.flac
Size: 62202953 Hash: F90377FA0A6AEFD9BEAC773B0BB85185 Accuracy: -m0
Conclusion: CDDA 100%
Signature: 76A899417A8A87798BEBC42F8B63F1B119563945
FILE: 01. Length Of Decay.flac
Size: 73722510 Hash: BD633C06813D07260CEBC81889E8C16E Accuracy: -m0
Conclusion: CDDA 100%
Signature: 1ABF1620FE67142F1CE61643CF107D123A455E9A

Время раздачи: 12/7
[NNMClub.to]_Empusae FLAC.torrent
 Торрент: Платиновая раздача  Зарегистрирован
 
Скачать


Примагнититься
 Зарегистрирован:   23 Авг 2019 22:28:51
 Размер:   4,99 GB  (
 Рейтинг:   4,9 (Голосов: 25)
 Поблагодарили:   101
 Проверка:   Оформление проверено модератором 23 Авг 2019 22:31:59
Как cкачать  ·  Как раздать  ·  Правильно оформить  ·  Поднять ратио!  
vilator ®
Модератор Музыки
RG Music
 
Стаж: 10 лет 6 мес.
Сообщений: 9467
Ratio: 178,365
Поблагодарили: 192030
100%
Откуда: Minsk
pirates.png
Обновление, добавлен:
2014 Rūtsu No Hōyō (WEB)
vilator ®
Модератор Музыки
RG Music
 
Стаж: 10 лет 6 мес.
Сообщений: 9467
Ratio: 178,365
Поблагодарили: 192030
100%
Откуда: Minsk
pirates.png
Обновление:
2002 Funestus (CD) заменен на лучший рип
добавлены:
2016 Empusae - Klankdal (Empusae & Klankdal) (WEB)
2017 Lueur (WEB)
vilator ®
Модератор Музыки
RG Music
 
Стаж: 10 лет 6 мес.
Сообщений: 9467
Ratio: 178,365
Поблагодарили: 192030
100%
Откуда: Minsk
pirates.png
Обновление:
2018 Uzupis (WEB)
vilator ®
Модератор Музыки
RG Music
 
Стаж: 10 лет 6 мес.
Сообщений: 9467
Ratio: 178,365
Поблагодарили: 192030
100%
Откуда: Minsk
pirates.png
Обновление, заменил рип 2014 Rūtsu No Hōyō (WEB)
bliser
Стаж: 8 лет 11 мес.
Сообщений: 63
Ratio: 0,235
100%
belarus.gif
vilator писал(а): Перейти к сообщению
заменил рип 2014 Rūtsu No Hōyō (WEB)

Спасибо, теперь всё ОК Друзья
vilator ®
Модератор Музыки
RG Music
 
Стаж: 10 лет 6 мес.
Сообщений: 9467
Ratio: 178,365
Поблагодарили: 192030
100%
Откуда: Minsk
pirates.png
Обновление:
2015 At Land (WEB)
заменил на свежий рип
2005 Error 404: Metaphorical Loss (CD)
вебку заменил на рип
2014 Rūtsu No Hōyō (CD)
HAL9001
Стаж: 2 года 5 мес.
Сообщений: 15
Ratio: 10,973
40.73%
ВАУ!!
Показать сообщения:   
Начать новую тему   Ответить на тему    Торрент-трекер NNM-Club -> Electronic -> Experimental, Industrial, EBM, Dark Electro (Lossless) Часовой пояс: GMT + 3
Страница 1 из 1