Классический форум-трекер
canvas not supported
Нас вместе: 4 078 137

Наемный убийца / Dip huet seung hung (The Killer) (1989) DVDRip


 
 
RSS
Начать новую тему   Ответить на тему    Торрент-трекер NNM-Club -> Зарубежное кино -> Азиатское кино (HD*Rip/LQ, DVDRip, SATRip, VHSRip)
Автор Сообщение
Troyan-san ®
Стаж: 11 лет 6 мес.
Сообщений: 56
Ratio: 2,358
Раздал: 1,233 TB
Поблагодарили: 372
100%
russia.gif
Наемный убийца / Dip huet seung hung (The Killer) (1989) DVDRip
Производство: Гонконг / Film Workshop, Golden Princess Film Production Limited, Long Shong Pictures
Жанр: боевик, триллер, драма, криминал

Режиссер: Джон Ву
Актеры: Чоу Юнь-Фат, Дэнни Ли, Сэлли Йе, Кон Чу, Кеннет Цан, Фуй-Он Син, Йип Винг Чо, Фэн Вэй Йи, Бэрри Вонг, Пакмен Вонг

Описание:
История о двух мужчинах, которые становятся друзьями, потому что не желают продаваться, не желают вести жизнь, не отвечающую их чувствам и устремлениям. Джеффри — профессиональный убийца, который, выполняя задание, случайно лишает зрения певицу Дженни.
Между слепой певицей и убийцей возникает взаимная привязанность, но самые близкие отношения у Джеффри завязываются с идущим по его следу полицейским инспектором, который признает в наемном убийце родственную душу.
Джеффри хочет оплатить Дженни операцию по восстановлению зрения, но, чтобы добыть деньги, он должен согласиться на совершение еще одного, последнего, как он надеется, задания.


Возраст: 18+ (зрителям, достигшим 18 лет. запрещено для детей)
Рейтинг MPAA: R (лицам до 17 лет обязательно присутствие взрослого)

Продолжительность: 01:47:12
Качество видео: DVDRip
Перевод: Одноголосый закадровый
Субтитры: отсутствуют

Видео: XviD, 624x352 (16:9), ~1370 Kbps, 0.250 bpp
Аудио: AC3, 6 ch, 448 Kbps - Russian
Код: выделить все
Общее
Полное имя                               : The Killer.avi
Формат                                   : AVI
Формат/Информация                        : Audio Video Interleave
Размер файла                             : 1,37 Гбайт
Продолжительность                        : 1 ч. 47 м.
Общий поток                              : 1827 Кбит/сек
Программа кодирования                    : VirtualDubMod 1.5.4.1 (build 2178/release)
Библиотека кодирования                   : VirtualDubMod build 2178/release

Видео
Идентификатор                            : 0
Формат                                   : MPEG-4 Visual
Профиль формата                          : Advanced Simple@L5
Параметр BVOP формата                    : 1
Параметр QPel формата                    : Нет
Параметр GMC формата                     : Без точки перехода
Параметр матрицы формата                 : Выборочная
Идентификатор кодека                     : XVID
Идентификатор кодека/Подсказка           : XviD
Продолжительность                        : 1 ч. 47 м.
Битрейт                                  : 1372 Кбит/сек
Ширина                                   : 624 пикселя
Высота                                   : 352 пикселя
Соотношение сторон                       : 16:9
Частота кадров                           : 25,000 кадров/сек
Цветовое пространство                    : YUV
Субдискретизация насыщенности            : 4:2:0
Битовая глубина                          : 8 бит
Тип развёртки                            : Прогрессивная
Метод сжатия                             : С потерями
Бит/(Пиксели*Кадры)                      : 0.250
Размер потока                            : 1,03 Гбайт (75%)
Библиотека кодирования                   : XviD 1.2.0SMP (UTC 2006-01-08)

Аудио
Идентификатор                            : 1
Формат                                   : AC-3
Формат/Информация                        : Audio Coding 3
Расширение режима                        : CM (complete main)
Параметр Endianness формата              : Big
Идентификатор кодека                     : 2000
Продолжительность                        : 1 ч. 47 м.
Вид битрейта                             : Постоянный
Битрейт                                  : 448 Кбит/сек
Каналы                                   : 6 каналов
Расположение каналов                     : Front: L C R, Side: L R, LFE
Частота                                  : 48,0 КГц
Битовая глубина                          : 16 бит
Метод сжатия                             : С потерями
Размер потока                            : 344 Мбайт (25%)
Выравнивание                             : Разделение по промежуткам
Продолжительность промежутка             : 96  мс. (2,40 видеокадра)
Время предзагрузки промежутка            : 96  мс.
Язык                                     : Russian
Скриншоты:
Все одноименные релизы в Клубе
[NNM-Club.info] The Killer.avi.torrent
 Торрент: Платиновая раздача  Зарегистрирован
 
Скачать


 Зарегистрирован:   11 Окт 2008 23:11:41
 Размер:   1,37 GB  (
 Рейтинг:   4,9 (Голосов: 61)
 Поблагодарили:   231
 Проверка:   Оформление проверено модератором 06 Фев 2019 21:11:20
Как cкачать  ·  Как раздать  ·  Правильно оформить  ·  Поднять ратио!  
EP
Стаж: 12 лет 4 мес.
Сообщений: 1205
Ratio: 2,86
Поблагодарили: 366
73.44%
Лучший фильм Ву. Смотрел раз пятнадцать...
Stitch2003
Стаж: 11 лет 9 мес.
Сообщений: 203
Ratio: 15,843
Поблагодарили: 1847
100%
Самый суперский боевик что видел в жизни. Ахрененное кино - вне всяких похвал!!!!!! Образец жанра экшен! До этого фильма я думал что китайцы тока про кунг-фу снимать могуть, а тут такое, в детстве я был потрясен и ошарашен - круче ваще ничего не видел. До сих пор номер один в коллекции боевиков.
Dantes
Стаж: 12 лет 5 мес.
Сообщений: 372
Ratio: 2,252
Поблагодарили: 4360
100%
russia.gif
Аффтору спасибо, скачаю для коллекции ...
MiKa_New
Стаж: 12 лет 6 мес.
Сообщений: 98
Ratio: 3,556
Поблагодарили: 49
100%
russia.gif
поддерживаю - фильм лучший для меня (в коллекции есть в нескольких вариантах, ДВД, перевод)
кто не смотрел - советую обязательно посмотреть
у кого нет - в коллекцию обязательно
Crymiss
Стаж: 11 лет 10 мес.
Сообщений: 29
Ratio: 1,814
100%
estonia.gif
обожаю это кино....
trustno1
Стаж: 9 лет 10 мес.
Сообщений: 96
Ratio: 3,289
100%
Откуда: Калининград
russia.gif
Фильм просто на 5 с десятью плюсами!!!! Ностальгия!!!!
celanin
Стаж: 9 лет
Сообщений: 24
Ratio: 1,763
25%
Откуда: Иршава
ukraine.gif
Фильм просто потрясный!!! Считаю это лучший боевик без всяких спецэффектов!!!
jrteftel
Стаж: 8 лет 4 мес.
Сообщений: 18
Ratio: 9,649
Раздал: 3,498 TB
Поблагодарили: 5
100%
Откуда: Енисейск, Красноярск, Ростов на Дону
russia.gif
удачно я пришел))
юрчил
Стаж: 8 лет 5 мес.
Сообщений: 650
Ratio: 0,574
Раздал: 388 GB
100%
Откуда: кемерово
russia.gif
Фильм очень нравиться.СПАСИБО

_________________
Спасибо всей команде nnm-club
Sagatkali
Стаж: 8 лет 4 мес.
Сообщений: 323
Ratio: 5,983
100%
kazakhstan.gif
Видел в молодости.Неплохой фильм.Скачаю для коллекции. :приветствую:
Nite2006
Стаж: 12 лет 6 мес.
Сообщений: 181
Ratio: 77,379
Раздал: 121,1 TB
100%
russia.gif
Добавились раздающие :)
GrayWolFX
Стаж: 8 лет 9 мес.
Сообщений: 84
Ratio: 1,252
100%
Откуда: Моршанск
russia.gif
Шикарно, брависсимо, ностальжи! =)
Показать сообщения:   
Начать новую тему   Ответить на тему    Торрент-трекер NNM-Club -> Зарубежное кино -> Азиатское кино (HD*Rip/LQ, DVDRip, SATRip, VHSRip) Часовой пояс: GMT + 3
Страница 1 из 1