Классический форум-трекер
canvas not supported
Нас вместе: 4 079 545

C.C. Catch - 8 альбомов (1986-2003) [WAVPack|Lossless]<Disco, Euro-Disco>


Страницы:  1, 2  След. 
 
RSS
Начать новую тему   Ответить на тему    Торрент-трекер NNM-Club -> Pop -> Disco, Italo-Disco, Euro-Disco, Hi-NRG (Lossless)
Автор Сообщение
vitolinform ®
Стаж: 12 лет 2 мес.
Сообщений: 168
Ratio: 8,754
Поблагодарили: 2601
100%
Откуда: Благовещенск
russia.gif
C.C. Catch - 5 Albums + 1 Single + 2 Compilations (1986-2003)
Год: 1986-2003
Жанр: Disco, Euro-Disco
Страна: Germany
Формат: WAVPack (iso.wv) + Covers
Битрейт аудио: Lossless
Продолжительность: 05:44:28
Треклист:
Albums:
1986 - Catch The Catch
1986 - Welcome To The Heartbreak Hotel
1987 - Like A Hurricane
1988 - Big Fun
1989 - Hear What I Say
Single:
2003 - Shake Your Head 2003
Compilations:
1988 - Diamonds - Her Greatest Hits
1998 - Best Of '98


Описание:
Катарина Мюллер, именно так на самом деле зовут Си Си Кетч, родилась 31 июля 1964 года в Голландии, в небольшом городе Осс. Родители Каролины были гражданами разных государств. Мать Корри, гражданка Нидерландов, жила там вместе с дочкой Каролиной, а отец Юрген, немец, жил в Германии. Семья переезжала с места на место, Осс, Геффен, Бюнде. Менялись одноклассники, друзья. Окончив начальную школу (6 классов), Каролина пошла в школу домашнего хозяйства. Там изучают всё, что имеет отношение к домоводству. Разбирали пылесос, учились готовить и стирать бельё. Также учили работе продавца, например, тому, что лучшие вещи в магазине всегда находятся справа. До 14 лет Каролина редко видела своего отца, мать Корри всегда искала способ соединить семью. Переезд в Бюнде и, соответственно, воссоединение семьи Мюллер состоялись. Каролине с матерью понравилась Германия. Радость Каролины прошла, когда она пошла в 9-ый класс основной школы, где преподавание велось на неизвестном для неё тогда немецком языке.
После окончания школы она начала учиться на изготовителя одежды и работать на швейной фабрике, это было для неё сплошным кошмаром. Вся атмосфера была чудовищной. Шеф всегда кричал и всех изматывал. Большинство работало сдельно. Каролина ещё училась - делала петли для пуговиц и пришивала рукава. Директор стоял почти что с секундомером и только и делал, что говорил: ""Быстрее, быстрее"". Начальница настраивала людей друг против друга. Кто не хотел добровольно работать по пятницам дольше положенного, того притесняли. За сверхурочные часы тоже ничего не было, даже выходного. Шеф никогда не был доволен её стараниями. О том времени у Каролины остались самые мрачные воспоминания.
Однажды вечером в музыкальном кабачке в Бюнде она познакомилась с музыкальной группой. Её спросили, не умеет ли она случайно петь. Каро решила, что она должна быть певицей.
Каролина начала целенаправленно выстраивать свою карьеру, брала уроки игры на гитаре, ходила в Бад-Ойенхаузен на джазовые танцы и принимала участие во всех без исключения конкурсах талантов, проводимых неподалеку от дома. Из-за её выступлений работа на фабрике одежды страдала всё больше. Был скандал, Каро заболела. Надо было принимать решение. Семья Мюллер собралась вместе, и родители решили поддержать карьеру Каро в качестве поп-певицы всеми силами. Отец Каро оставил свою профессию шлифовальщика клинкера и основал агентство ""Орбита"", чтобы самому организовывать конкурсы талантов и помочь карьере дочери. Через полгода Каро оставила ненавистную работу. Каро: ""Если бы у меня была работа получше, я бы её не бросила"".
Она прервала своё обучение и пережила много фальстартов, прежде чем достигла прорыва. Каролина сосредоточилась на конкурсах талантов и вызвала интерес людей, воображающих себя продюсерами, ей предлагали подписать персональный контракт с различными рекорд-лэйблами. На деле же горе-продюсеры просто хотели нажиться на юной и неопытной Каролине.
Один из них, например, придумал творческое имя ""Кэрол Дин"", пообещал контракт на запись пластинок и исчез. Потенциал Каролины в проекте СAROL DEAN ещё не раскрылся, песни ""Королева сердец"" (Джес Ньютон), ""Это - жизнь"" (Эмили Харрис) не принесли ей успеха. Но дверь в опасный мир шоу-бизнеса уже была открыта. Каролина на этот раз предпочла женское общество, созданную группу назвали OPTIMAL (продюсер - Петер Кент).
Девушки (Сабина, Клаудиа, Сильвиа, Каро) были знакомы как соперницы ещё на конкурсах талантов, где каждая выступала сольно. Girl-band выпустило в Германии два сингла - ""Er war magnetisch"" [1983] и ""The Good Bye"" [1984], и совершило турне по Германии. И всё же фортуна улыбнулась. В 1985 году во время выступления на конкурсе молодых артистов квартет ""Optimal"" был замечен продюсером и участником группы ""Modern Talking"" Дитером Боленом. Он сразу же отметил ""бриллиантовый"" вокал одной из участниц квартета - Каролины Мюллер. Несмотря на то, что тогда, в 1985 году, дуэт Modern Talking был на вершине успеха, Дитер нашёл время и для нового проекта. В тот же вечер Дитер пригласил артистку в студию на пробы, а через некоторое время предложил ей подписать весьма выгодный контракт. Каро согласилась. В том же 1985 году Болен стал её продюсером, он же и придумал будущее название проекта. Новую группу назвали C.C.Catch от заглавных букв её имен ""C"" ""C"" и слова ""Catch"" как синонима хитовой идеи.
Позже к группе примкнут короли рэпа и танца Captain Hollywood & T.T.Frech. Летом 1985 года, в день рождения Каролины, был выпущен дебютный сингл группы С.С.Сatch: ""I Can Lose My Heart Tonight"". С этого момента дела Каролины Катарины Мюллер, получившей от Дитера Болена этикетку C.C.CATCH, пошли в гору. Однако её имя и личность для многих до следующего релиза оставались загадкой, поскольку нигде на пластинке не были указаны ни настоящее имя, ни фотография.
В начале 1986 года появляется второй сингл ""’cause You Are Young"", и вскоре вся Европа была очарована лёгким, словно летний ветер, голосом певицы. Любопытство публики было удовлетворено - на обложке изображена красивая девушка, а на обороте пластинки указано её имя - Каролина Мюллер. Вторая песня стала ещё более популярна, чем первая, и на волне этой популярности весной 86-го был выпущен дебютный альбом. Все песни в альбоме написаны Дитером Боленом, он и придумал название альбома ""CATCH THE CATCH"" (получите, мол, результат). С.С.Сatch стало её псевдонимом, превратившем Каролину с её неподражаемым голосом в королеву дискотек. На обложке диска изображён любимый чёрный кот Каролины - Морти.
В 1986 году рекорд-компания ""Hansa"" выпустила еще несколько синглов - ""Strangers By Night"", ""Heartbreak Hotel"", а также ""Heaven And Hell"". По результатам он был признан лучшим синглом, когда-либо выпущенным немецкой звукозаписывающей компанией (). Фанаты ждали выхода третьего сингла с альбома - ""Tears Won't Wash Away My Heartache"". Однако диск по неизвестной причине не вышел.
Летом 1987 года на всех европейских радиостанциях первым хитом была новая песня C.C.Catch ""Are You Man Enough?"". После выхода очередного сингла ""Soul Survivor"" число поклонников увеличилось в несколько сот раз.
В это же время Томас Андерс покидает ""Modern Talking"", и публика начинает муссировать слухи, будто бы Каролина Мюллер займёт место Томаса. Её часто обвиняли, что манера пения уж больно похожа на всё, что делает ""Modern Talking"". Песни Дитера для Каро были не менее мелодичны, но романтики и лирики в хитах Си Си Кетч было меньше. Дитер Болен в конце концов создаёт новую группу - ""Blue System"".
Ударником в группе ""Blue System"" был друг Каро Франк Отто. Каро и Франк познакомились на телевизионной передаче с выставки Радио-85. Франк, её ровесник, как раз окончил школу, с отличием окончил курс обучения на кровельщика, и в то время был барабанщиком в группе ""Аквамарин"". Вскоре они стали жить вместе, а до переезда в Берлин Каро и её друг занимали целый этаж в доме её родителей в Резингхаузе.
Третий студийный альбом, в который попала песня ""Soul Survivor"", назвали ""Like A Hurricane"". На обложке Каролина предстала со слегка шокировавшей фанатов короткой стрижкой - чтобы её сделать, Каролина с Франком специально летали в Париж (утром туда, вечером обратно), единственный салон, которому доверила Каролина изменить свой имидж, носил имя ""КЛЕОПАТРА"". Изменился также и её внешний вид: заклёпки ушли в прошлое, теперь Каролина предпочитала широкие брюки и длиннющие ногти, этакая стильная кошка - разбойница, а её новая прическа стала эталоном для всех девушек 80-х. Альбом ""Like A Hurricane"" принёс C.C.Catch ещё больший успех, и весной 1988 года она отправляется в европейское турне. В 1988 году вышел сингл ""House Of Mystic Lights"", его танцевальная версия была включена в сборник-четвёртый альбом ""Diamonds"", а в самой песне слышен речитатив рэппера Captain Hollywood. Его настоящее имя Tony Harrison, кроме рэпа он увлекается танцем и ставил танцевальные шоу для Полы Эбдул и Ким Уайлд.
Из-за критики по поводу схожести стилей с Modern Talking и Blue System, Каро спросила у Дитера Болена, не разрешит ли он ей самой написать некоторые песни для следующего альбома. Болен ответил кратко: ""Нет!"". Так как он всё ещё является продюсером Каро, то все стихи и вся музыка должны находиться под его контролем. В этот момент Каро решила разорвать все отношения с Дитером Боленом, но благодаря хорошим связям, с помощью международных директоров BMG Ariola, пятый альбом под названием ""Big Fun"" был выпущен.
В конце 1988 года вышел в свет сингл ""Backseat Of Your Cadillac"", а альбом ""Big Fun"" был последним, выпущенным с Дитером Боленом. Несмотря ни на что, Дитер и Каро работали изредка вместе до конца 1989 года. Разрыв произошёл по инициативе Каролины, которая решила, что отныне она способна обходиться без его помощи. Превратившись в брюнетку с длинными локонами, Каро начала переговоры с английскими продюсерами. Однако, проблемы начались там, где Каролина их меньше всего ожидала. Дитер заявил, что поскольку псевдоним Си Си Кетч был придуман им, ему принадлежат все права на него, и теперь Каролина должна выступать либо под своим именем, либо под новым псевдонимом. После большой битвы в суде имя Си Си Кетч оставлено за Каролиной, тем не менее суд обязал её выплатить несколько миллионов бывшему продюсеру.
Во время новогоднего шоу в Испании Каролина встретила бывшего менеджера группы ""Wham!"", который с этого времени стал её менеджером. На этот раз контракт был подписан с компанией ""Metronome"" (PolyGram). Певица переехала жить в Британию. В Лондоне Каро записала песню ""Big Time"" - это была первая не ""боленовская"" песня. Звучание композиции сильно отличалось от того, что C.C.Catch делала раньше.
Новый альбом ""Hear What I Say"" был записан с новыми продюсерами. Авторство Каролины есть в семи песнях. Альбом был раскуплен её фанатами по инерции. Заголовок первого альбома без Болена можно истолковать так: Каролина Мюллер хочет, чтобы все слышали, что ГОВОРИТ ОНА, а не Болен. C.C.Catch поёт трудноузнаваемым голосом в песнях ""I'm Gonna Miss You"" и ""Back-girl"". Звучание стало совсем другим.
В 1990 году она впервые выступала в Советском Союзе - в качестве гостьи на фестивале ""СТУПЕНЬ К ПАРНАСУ"".
В 1991 году C.C.Catch приняла участие в съёмках программы БРАВО-91 и фестивале-акции ""Дети Чернобыля - наши дети"". Шоу состоялось 1-2 июня. Среди приглашённых были такие звёзды, как Bad Boys Blue, Blue System, Den Harrow.
Выпустив шестой альбом, Каро рассталась с ""Метрономом"" и с музыкальной индустрией. В 1998 году Каролина Мюллер выходит замуж за своего учителя медитации, через некоторое время расстаётся с ним.
В 1998 году Каролина на некоторое время возобновила сотрудничество с Дитером Боленом. Она согласилась сделать промо-работу для BMG - новую компиляцию ""Best of 98"". После записи в 1998 году самых известных хитов в новой современной обработке - с добавлением более жёсткого бита и рэп-вокала - к группе присоединился вокалист Кеннет Льюис, он же - рэппер KRAYZEE. Именно его бодрый голос звучит в новых версиях её хитов. KRAYZEE является протеже Дитера Болена. Кеннет в своё время сотрудничал с одним из проектов Болена - группой ""Touche"", спел с ними кавер-версию классики диско ""Y.M.C.A.""
Теперь C.C.Catch блондинка. Появление в её команде двух танцоров - Marco Weis и Mark Rohde - сделало её шоу более красочным, зрелищным, импульсивным. Сейчас их заменяет танцор Омега Аулайм, уроженец государства Того.
С 2003 года Каролина снова живёт в Германии.
Albums:
  • Label: Hansa ‎– 257 707
  • Format: CD, Album
  • Country: Germany
  • Released: 1986

Прoдолжительность: 00:40:52

Трeклист:
01. Cause You Are Young (12'' Version) (4:47)
02. I Can Lose My Heart Tonight (12'' Version) (5:55)
03. You Shot A Hole In My Soul (12'' Version) (5:19)
04. One Night's Not Enough (3:23)
05. Strangers By Night (12'' Version) (5:44)
06. Stay (5:49)
07. Jump In My Car (12'' Version) (4:37)
08. You Can Be My Lucky Star Tonight (12'' Version) (5:16)
Код:
Exact Audio Copy V0.99 prebeta 3 from 28. July 2007

Отчёт EAC об извлечении, выполненном 25. октября 2007, 19:35

C.C.Catch / Catch The Catch

Дисковод: PLEXTOR DVDR   PX-716AL   Adapter: 2  ID: 0

Режим чтения                 : Достоверность
Использование точного потока : Да
Отключение кэша аудио        : Да
Использование указателей C2  : Нет

Коррекция смещения при чтении                     : 30
Способность читать области Lead-in и Lead-out     : Нет
Заполнение пропущенных сэмплов тишиной            : Да
Удаление блоков с тишиной в начале и конце        : Нет
При вычислениях CRC использовались нулевые сэмплы : Да
Интерфейс                                         : Встроенный Win32-интерфейс для Win NT/2000

Выходной формат : Внутренние WAV-операции
Формат сэмплов  : 44.100 Гц; 16 бит; стерео

TOC извлечённого CD

     Трек |   Старт  | Длительность | Начальный сектор | Конечный сектор
    ---------------------------------------------------------------------
       1  |  0:00.33 |    4:47.20   |          33      |      21577
       2  |  4:47.53 |    5:55.05   |       21578      |      48207
       3  | 10:42.58 |    5:19.37   |       48208      |      72169
       4  | 16:02.20 |    3:23.25   |       72170      |      87419
       5  | 19:25.45 |    5:44.30   |       87420      |     113249
       6  | 25:10.00 |    5:49.33   |      113250      |     139457
       7  | 30:59.33 |    4:36.45   |      139458      |     160202
       8  | 35:36.03 |    5:16.30   |      160203      |     183932

Характеристики диапазона извлечения и сообщения об ошибках

Выбранный диапазон

     Имя файла Z:\Time\Temp\C.C.Catch\1986.Catch The Catch\C.C.Catch - Catch The Catch.wav

     Пиковый уровень 94.8 %
     Качество диапазона 100.0 %
     CRC копии 2F278EB4
     Копирование... OK

Ошибок не произошло

Конец отчёта
Код:
-----------------------

DON'T MODIFY THIS FILE

-----------------------

PERFORMER: auCDtect Task Manager, ver. 1.6.0 RC1 build 1.6.0.1
Copyright (c) 2008-2010 y-soft. All rights reserved
http://y-soft.org

ANALYZER: auCDtect: CD records authenticity detector, version 0.8.2
Copyright (c) 2004 Oleg Berngardt. All rights reserved.
Copyright (c) 2004 Alexander Djourik. All rights reserved.

FILE: C.C.Catch - Catch The Catch.wv
  Size: 296230756 Hash: F0DFB567D821D5D64E93DA39A582BE83 Accuracy: -m0
  Conclusion: MPEG 95%
  Signature: 6A16D7995ECB64023736D6A3EC9ACA00BE64F00B
Код:
REM GENRE Eurodance
REM DATE 1986
REM DISCID 6C099408
REM COMMENT "ExactAudioCopy v0.99pb3"
PERFORMER "C.C.Catch"
TITLE "Catch The Catch"
FILE "C.C.Catch - Catch The Catch.wav" WAVE
  TRACK 01 AUDIO
    TITLE "Cause You Are Young (12'' Version)"
    PERFORMER "C.C.Catch"
    INDEX 00 00:00:00
    INDEX 01 00:00:33
  TRACK 02 AUDIO
    TITLE "I Can Lose My Heart Tonight (12'' Version)"
    PERFORMER "C.C.Catch"
    INDEX 00 04:47:08
    INDEX 01 04:47:53
  TRACK 03 AUDIO
    TITLE "You Shot A Hole In My Soul (12'' Version)"
    PERFORMER "C.C.Catch"
    INDEX 00 10:39:70
    INDEX 01 10:42:58
  TRACK 04 AUDIO
    TITLE "One Night's Not Enough"
    PERFORMER "C.C.Catch"
    INDEX 00 15:59:08
    INDEX 01 16:02:20
  TRACK 05 AUDIO
    TITLE "Strangers By Night (12'' Version)"
    PERFORMER "C.C.Catch"
    INDEX 00 19:23:58
    INDEX 01 19:25:45
  TRACK 06 AUDIO
    TITLE "Stay"
    PERFORMER "C.C.Catch"
    INDEX 00 25:08:20
    INDEX 01 25:10:00
  TRACK 07 AUDIO
    TITLE "Jump In My Car (12'' Version)"
    PERFORMER "C.C.Catch"
    INDEX 00 30:57:20
    INDEX 01 30:59:33
  TRACK 08 AUDIO
    TITLE "You Can Be My Lucky Star Tonight (12'' Version)"
    PERFORMER "C.C.Catch"
    INDEX 00 35:32:20
    INDEX 01 35:36:03
  • Label: Mauer Studio ‎– MS 100625-8
  • Format: CD, Album
  • Country: Germany
  • Released: 1986

Прoдолжительность: 00:36:13

Трeклист:
01. Heartbreak Hotel (3:38)
02. Picture Blue Eyes (3:34)
03. Tears Won't Wash Away My Heartache (4:23)
04. V.I.P (They're Callin' Me Tonight) (3:32)
05. You Can't Run Away From It (3:16)
06. Heaven And Hell (3:44)
07. Hollywood Nights (3:15)
08. Born On The Wind (3:54)
09. Wild Fire (3:40)
10. Stop - Draggin' My Heart Around (3:18)
Код:
Exact Audio Copy V0.99 prebeta 3 from 28. July 2007

Отчёт EAC об извлечении, выполненном 25. октября 2007, 22:57

C.C.Catch / Welcome To The Heartbreak Hotel

Дисковод: PLEXTOR DVDR   PX-716AL   Adapter: 2  ID: 0

Режим чтения                 : Достоверность
Использование точного потока : Да
Отключение кэша аудио        : Да
Использование указателей C2  : Нет

Коррекция смещения при чтении                     : 30
Способность читать области Lead-in и Lead-out     : Нет
Заполнение пропущенных сэмплов тишиной            : Да
Удаление блоков с тишиной в начале и конце        : Нет
При вычислениях CRC использовались нулевые сэмплы : Да
Интерфейс                                         : Встроенный Win32-интерфейс для Win NT/2000

Выходной формат : Внутренние WAV-операции
Формат сэмплов  : 44.100 Гц; 16 бит; стерео

TOC извлечённого CD

     Трек |   Старт  | Длительность | Начальный сектор | Конечный сектор
    ---------------------------------------------------------------------
       1  |  0:00.00 |    3:37.55   |           0      |      16329
       2  |  3:37.55 |    3:33.61   |       16330      |      32365
       3  |  7:11.41 |    4:22.68   |       32366      |      52083
       4  | 11:34.34 |    3:31.41   |       52084      |      67949
       5  | 15:06.00 |    3:16.33   |       67950      |      82682
       6  | 18:22.33 |    3:44.30   |       82683      |      99512
       7  | 22:06.63 |    3:14.73   |       99513      |     114135
       8  | 25:21.61 |    3:53.66   |      114136      |     131676
       9  | 29:15.52 |    3:39.65   |      131677      |     148166
      10  | 32:55.42 |    3:18.02   |      148167      |     163018

Характеристики диапазона извлечения и сообщения об ошибках

Выбранный диапазон

     Имя файла Z:\Time\Temp\C.C.Catch\1986.Welcome To The Heartbreak Hotel\C.C.Catch - Welcome To The Heartbreak Hotel.wav

     Пиковый уровень 86.5 %
     Качество диапазона 100.0 %
     CRC копии FF7887C0
     Копирование... OK

Ошибок не произошло

Конец отчёта
Код:
-----------------------

DON'T MODIFY THIS FILE

-----------------------

PERFORMER: auCDtect Task Manager, ver. 1.6.0 RC1 build 1.6.0.1
Copyright (c) 2008-2010 y-soft. All rights reserved
http://y-soft.org

ANALYZER: auCDtect: CD records authenticity detector, version 0.8.2
Copyright (c) 2004 Oleg Berngardt. All rights reserved.
Copyright (c) 2004 Alexander Djourik. All rights reserved.

FILE: C.C.Catch - Welcome To The Heartbreak Hotel.wv
  Size: 251552964 Hash: E0CC86C3F7FFDD445CFA971F7AC2E53F Accuracy: -m0
  Conclusion: MPEG 95%
  Signature: F37A081AAD8ED1279AA2E358BEA3B0A281224631
Код:
REM GENRE Eurodance
REM DATE 1986
REM DISCID 89087D0A
REM COMMENT "ExactAudioCopy v0.99pb3"
PERFORMER "C.C.Catch"
TITLE "Welcome To The Heartbreak Hotel"
FILE "C.C.Catch - Welcome To The Heartbreak Hotel.wav" WAVE
  TRACK 01 AUDIO
    TITLE "Heartbreak Hotel"
    PERFORMER "C.C.Catch"
    INDEX 01 00:00:00
  TRACK 02 AUDIO
    TITLE "Picture Blue Eyes"
    PERFORMER "C.C.Catch"
    INDEX 01 03:37:55
  TRACK 03 AUDIO
    TITLE "Tears Won't Wash Away My Heartache"
    PERFORMER "C.C.Catch"
    INDEX 01 07:11:41
  TRACK 04 AUDIO
    TITLE "V.I.P (They're Callin' Me Tonight)"
    PERFORMER "C.C.Catch"
    INDEX 01 11:34:34
  TRACK 05 AUDIO
    TITLE "You Can't Run Away From It"
    PERFORMER "C.C.Catch"
    INDEX 01 15:06:00
  TRACK 06 AUDIO
    TITLE "Heaven And Hell"
    PERFORMER "C.C.Catch"
    INDEX 01 18:22:33
  TRACK 07 AUDIO
    TITLE "Hollywood Nights"
    PERFORMER "C.C.Catch"
    INDEX 01 22:06:63
  TRACK 08 AUDIO
    TITLE "Born On The Wind"
    PERFORMER "C.C.Catch"
    INDEX 01 25:21:61
  TRACK 09 AUDIO
    TITLE "Wild Fire"
    PERFORMER "C.C.Catch"
    INDEX 01 29:15:52
  TRACK 10 AUDIO
    TITLE "Stop - Draggin' My Heart Around"
    PERFORMER "C.C.Catch"
    INDEX 01 32:55:42
  • Label: Hansa ‎– 259 631
  • Format: CD, Album, Reissue
  • Country: Europe
  • Released: 1989

Прoдолжительность: 00:36:46

Трeклист:
01. Good Guys Only Win In Movies (5:46)
02. Like A Hurricane (3:17)
03. Smoky Joe's Cafe (3:45)
04. Are You Man Enough (3:40)
05. Don't Be A Hero (3:35)
06. Soul Survivor (5:13)
07. Midnight Gambler (4:29)
08. Don't Wait Too Long (3:25)
09. Dancing In Shadows (3:37)
Код:
Exact Audio Copy V0.99 prebeta 3 from 28. July 2007

Отчёт EAC об извлечении, выполненном 25. октября 2007, 23:27

C.C.Catch / Like A Hurricane

Дисковод: PLEXTOR DVDR   PX-716AL   Adapter: 2  ID: 0

Режим чтения                 : Достоверность
Использование точного потока : Да
Отключение кэша аудио        : Да
Использование указателей C2  : Нет

Коррекция смещения при чтении                     : 30
Способность читать области Lead-in и Lead-out     : Нет
Заполнение пропущенных сэмплов тишиной            : Да
Удаление блоков с тишиной в начале и конце        : Нет
При вычислениях CRC использовались нулевые сэмплы : Да
Интерфейс                                         : Встроенный Win32-интерфейс для Win NT/2000

Выходной формат : Внутренние WAV-операции
Формат сэмплов  : 44.100 Гц; 16 бит; стерео

TOC извлечённого CD

     Трек |   Старт  | Длительность | Начальный сектор | Конечный сектор
    ---------------------------------------------------------------------
       1  |  0:00.00 |    5:45.62   |           0      |      25936
       2  |  5:45.62 |    3:16.50   |       25937      |      40686
       3  |  9:02.37 |    3:44.63   |       40687      |      57549
       4  | 12:47.25 |    3:39.50   |       57550      |      74024
       5  | 16:27.00 |    3:35.00   |       74025      |      90149
       6  | 20:02.00 |    5:12.62   |       90150      |     113611
       7  | 25:14.62 |    4:29.13   |      113612      |     133799
       8  | 29:44.00 |    3:25.25   |      133800      |     149199
       9  | 33:09.25 |    3:36.50   |      149200      |     165449

Характеристики диапазона извлечения и сообщения об ошибках

Выбранный диапазон

     Имя файла Z:\Time\Temp\C.C.Catch\1987.Like A Hurricane\C.C.Catch - Like A Hurricane.wav

     Пиковый уровень 100.0 %
     Качество диапазона 100.0 %
     CRC копии 0D702A4E
     Копирование... OK

Ошибок не произошло

Конец отчёта
Код:
-----------------------

DON'T MODIFY THIS FILE

-----------------------

PERFORMER: auCDtect Task Manager, ver. 1.6.0 RC1 build 1.6.0.1
Copyright (c) 2008-2010 y-soft. All rights reserved
http://y-soft.org

ANALYZER: auCDtect: CD records authenticity detector, version 0.8.2
Copyright (c) 2004 Oleg Berngardt. All rights reserved.
Copyright (c) 2004 Alexander Djourik. All rights reserved.

FILE: C.C.Catch - Like A Hurricane.wv
  Size: 253808180 Hash: 29254FA4E5C026850F4CCDDFE70869A3 Accuracy: -m0
  Conclusion: MPEG 95%
  Signature: 5DA4EF7868A1754FA6C45AC20FCAEF258C90691F
Код:
REM GENRE Eurodance
REM DATE 1987
REM DISCID 8B089E09
REM COMMENT "ExactAudioCopy v0.99pb3"
PERFORMER "C.C.Catch"
TITLE "Like A Hurricane"
FILE "C.C.Catch - Like A Hurricane.wav" WAVE
  TRACK 01 AUDIO
    TITLE "Good Guys Only Win In Movies"
    PERFORMER "C.C.Catch"
    INDEX 01 00:00:00
  TRACK 02 AUDIO
    TITLE "Like A Hurricane"
    PERFORMER "C.C.Catch"
    INDEX 00 05:43:62
    INDEX 01 05:45:62
  TRACK 03 AUDIO
    TITLE "Smoky Joe's Cafe"
    PERFORMER "C.C.Catch"
    INDEX 00 09:00:37
    INDEX 01 09:02:37
  TRACK 04 AUDIO
    TITLE "Are You Man Enough"
    PERFORMER "C.C.Catch"
    INDEX 00 12:45:25
    INDEX 01 12:47:25
  TRACK 05 AUDIO
    TITLE "Don't Be A Hero"
    PERFORMER "C.C.Catch"
    INDEX 00 16:25:00
    INDEX 01 16:27:00
  TRACK 06 AUDIO
    TITLE "Soul Survivor"
    PERFORMER "C.C.Catch"
    INDEX 00 20:00:25
    INDEX 01 20:02:00
  TRACK 07 AUDIO
    TITLE "Midnight Gambler"
    PERFORMER "C.C.Catch"
    INDEX 00 25:12:62
    INDEX 01 25:14:62
  TRACK 08 AUDIO
    TITLE "Don't Wait Too Long"
    PERFORMER "C.C.Catch"
    INDEX 00 29:42:00
    INDEX 01 29:44:00
  TRACK 09 AUDIO
    TITLE "Dancing In Shadows"
    PERFORMER "C.C.Catch"
    INDEX 00 33:07:25
    INDEX 01 33:09:25
  • Label: Hansa ‎– 259 481
  • Format: CD, Album
  • Country: Germany, Austria, & Switzerland
  • Released: 1988

Прoдолжительность: 00:34:06

Трeклист:
01. Backseat Of Your Cadillac (3:24)
02. Summer Kisses (3:52)
03. Are You Serious (3:07)
04. Night In Africa (4:09)
05. Heartbeat City (3:38)
06. Baby I Need Your Love (3:04)
07. Little By Little (3:06)
08. Nothing But A Heartache (3:03)
09. If I Feel Love (3:43)
10. Fire Of Love (3:00)
Код:
Exact Audio Copy V0.99 prebeta 3 from 28. July 2007

Отчёт EAC об извлечении, выполненном 26. октября 2007, 0:51

C.C.Catch / Big Fun

Дисковод: PLEXTOR DVDR   PX-716AL   Adapter: 2  ID: 0

Режим чтения                 : Достоверность
Использование точного потока : Да
Отключение кэша аудио        : Да
Использование указателей C2  : Нет

Коррекция смещения при чтении                     : 30
Способность читать области Lead-in и Lead-out     : Нет
Заполнение пропущенных сэмплов тишиной            : Да
Удаление блоков с тишиной в начале и конце        : Нет
При вычислениях CRC использовались нулевые сэмплы : Да
Интерфейс                                         : Встроенный Win32-интерфейс для Win NT/2000

Выходной формат : Внутренние WAV-операции
Формат сэмплов  : 44.100 Гц; 16 бит; стерео

TOC извлечённого CD

     Трек |   Старт  | Длительность | Начальный сектор | Конечный сектор
    ---------------------------------------------------------------------
       1  |  0:00.00 |    3:24.30   |           0      |      15329
       2  |  3:24.30 |    3:51.47   |       15330      |      32701
       3  |  7:16.02 |    3:07.23   |       32702      |      46749
       4  | 10:23.25 |    4:09.12   |       46750      |      65436
       5  | 14:32.37 |    3:38.00   |       65437      |      81786
       6  | 18:10.37 |    3:03.38   |       81787      |      95549
       7  | 21:14.00 |    3:06.25   |       95550      |     109524
       8  | 24:20.25 |    3:02.67   |      109525      |     123241
       9  | 27:23.17 |    3:42.50   |      123242      |     139941
      10  | 31:05.67 |    3:00.08   |      139942      |     153449

Характеристики диапазона извлечения и сообщения об ошибках

Выбранный диапазон

     Имя файла Z:\Time\Temp\C.C.Catch\1988.(2)Big Fun\C.C.Catch - Big Fun.wav

     Пиковый уровень 95.2 %
     Качество диапазона 100.0 %
     CRC копии DA13C71C
     Копирование... OK

Ошибок не произошло

Конец отчёта
Код:
-----------------------

DON'T MODIFY THIS FILE

-----------------------

PERFORMER: auCDtect Task Manager, ver. 1.6.0 RC1 build 1.6.0.1
Copyright (c) 2008-2010 y-soft. All rights reserved
http://y-soft.org

ANALYZER: auCDtect: CD records authenticity detector, version 0.8.2
Copyright (c) 2004 Oleg Berngardt. All rights reserved.
Copyright (c) 2004 Alexander Djourik. All rights reserved.

FILE: C.C.Catch - Big Fun.wv
  Size: 242083715 Hash: 2922CEE61DFC63D8BDEC1A8B38A1342F Accuracy: -m0
  Conclusion: CDDA 100%
  Signature: 439CF37164DBB7A5F78A267BC7EEAE7DA0F96D53
Код:
REM GENRE Eurodance
REM DATE 1988
REM DISCID 8807FE0A
REM COMMENT "ExactAudioCopy v0.99pb3"
PERFORMER "C.C.Catch"
TITLE "Big Fun"
FILE "C.C.Catch - Big Fun.wv" WAVE
  TRACK 01 AUDIO
    TITLE "Backseat Of Your Cadillac"
    PERFORMER "C.C.Catch"
    INDEX 01 00:00:00
  TRACK 02 AUDIO
    TITLE "Summer Kisses"
    PERFORMER "C.C.Catch"
    INDEX 00 03:23:12
    INDEX 01 03:24:30
  TRACK 03 AUDIO
    TITLE "Are You Serious"
    PERFORMER "C.C.Catch"
    INDEX 00 07:15:12
    INDEX 01 07:16:02
  TRACK 04 AUDIO
    TITLE "Night In Africa"
    PERFORMER "C.C.Catch"
    INDEX 00 10:22:00
    INDEX 01 10:23:25
  TRACK 05 AUDIO
    TITLE "Heartbeat City"
    PERFORMER "C.C.Catch"
    INDEX 00 14:30:00
    INDEX 01 14:32:37
  TRACK 06 AUDIO
    TITLE "Baby I Need Your Love"
    PERFORMER "C.C.Catch"
    INDEX 00 18:09:12
    INDEX 01 18:10:37
  TRACK 07 AUDIO
    TITLE "Little By Little"
    PERFORMER "C.C.Catch"
    INDEX 00 21:12:50
    INDEX 01 21:14:00
  TRACK 08 AUDIO
    TITLE "Nothing But A Heartache"
    PERFORMER "C.C.Catch"
    INDEX 00 24:18:50
    INDEX 01 24:20:25
  TRACK 09 AUDIO
    TITLE "If I Feel Love"
    PERFORMER "C.C.Catch"
    INDEX 00 27:22:37
    INDEX 01 27:23:17
  TRACK 10 AUDIO
    TITLE "Fire Of Love"
    PERFORMER "C.C.Catch"
    INDEX 00 31:04:37
    INDEX 01 31:05:67
  • Label: Metronome ‎– 841 609-2
  • Format: CD, Album
  • Country: Germany
  • Released: 1989

Прoдолжительность: 00:42:41

Трeклист:
01. Midnight Hour (4:36)
02. Big Time (3:54)
03. Love Away (4:06)
04. Give Me What I Want (3:49)
05. I'm Gonna Miss You (5:42)
06. Backgirl (3:34)
07. Can't Catch Me (3:55)
08. Hear What I Say (3:50)
09. Nothing's Gonna Change Our Love (3:54)
10. Feels Like Heaven (5:22)
Код:
Отчёт EAC об извлечении, выполненном 26. октября 2007, 1:50 для диска:
C.C.Catch / Hear What I Say

Дисковод: PLEXTOR DVDR   PX-716AL   Adapter: 2  ID: 0
Режим чтения: Достоверный (C2: нет, Точный поток: да, Отключение кэша: да)
Коррекция смещения при чтении: 30
Способность читать области Lead-in и Lead-out : Нет

Выходной формат: Внутренние WAV-операции
                     44.100 Гц; 16 бит; стерео

Другие параметры:
    Заполнение пропущенных сэмплов тишиной : Да
    Удаление блоков с тишиной в начале и конце : Нет
    Встроенный Win32-интерфейс для Win NT/2000

Характеристики диапазона извлечения и сообщения об ошибках
Выбранный диапазон
     Имя файла Z:\Time\Temp\C.C.Catch\1989.Hear What I Say\C.C.Catch - Hear What I Say.wav

     Пиковый уровень 100.0 %
     Качество диапазона 99.9 %
     CRC 63FA8CDA
     Копирование... OK

Ошибок не произошло

Конец отчёта
Код:
-----------------------

DON'T MODIFY THIS FILE

-----------------------

PERFORMER: auCDtect Task Manager, ver. 1.6.0 RC1 build 1.6.0.1
Copyright (c) 2008-2010 y-soft. All rights reserved
http://y-soft.org

ANALYZER: auCDtect: CD records authenticity detector, version 0.8.2
Copyright (c) 2004 Oleg Berngardt. All rights reserved.
Copyright (c) 2004 Alexander Djourik. All rights reserved.

FILE: C.C.Catch - Hear What I Say.wv
  Size: 281344093 Hash: C2CB4D14E4C5D4B44350FE6C44F2E691 Accuracy: -m0
  Conclusion: MPEG 95%
  Signature: 37CC5F496C42CA0C7A29E4E9BC60D8A6A9898D2B
Код:
REM GENRE Eurodance
REM DATE 1989
REM DISCID 890A010A
REM COMMENT "ExactAudioCopy v0.95b4"
PERFORMER "C.C.Catch"
TITLE "Hear What I Say"
FILE "C.C.Catch - Hear What I Say.wv" WAVE
  TRACK 01 AUDIO
    TITLE "Midnight Hour"
    PERFORMER "C.C.Catch"
    INDEX 00 00:00:00
    INDEX 01 00:00:33
  TRACK 02 AUDIO
    TITLE "Big Time"
    PERFORMER "C.C.Catch"
    INDEX 01 04:36:28
  TRACK 03 AUDIO
    TITLE "Love Away"
    PERFORMER "C.C.Catch"
    INDEX 00 08:28:63
    INDEX 01 08:30:13
  TRACK 04 AUDIO
    TITLE "Give Me What I Want"
    PERFORMER "C.C.Catch"
    INDEX 01 12:36:08
  TRACK 05 AUDIO
    TITLE "I'm Gonna Miss You"
    PERFORMER "C.C.Catch"
    INDEX 00 16:24:71
    INDEX 01 16:25:13
  TRACK 06 AUDIO
    TITLE "Backgirl"
    PERFORMER "C.C.Catch"
    INDEX 00 22:05:20
    INDEX 01 22:06:70
  TRACK 07 AUDIO
    TITLE "Can't Catch Me"
    PERFORMER "C.C.Catch"
    INDEX 00 25:39:55
    INDEX 01 25:40:35
  TRACK 08 AUDIO
    TITLE "Hear What I Say"
    PERFORMER "C.C.Catch"
    INDEX 00 29:35:30
    INDEX 01 29:35:60
  TRACK 09 AUDIO
    TITLE "Nothing's Gonna Change Our Love"
    PERFORMER "C.C.Catch"
    INDEX 00 33:24:25
    INDEX 01 33:25:35
  TRACK 10 AUDIO
    TITLE "Feels Like Heaven"
    PERFORMER "C.C.Catch"
    INDEX 00 37:15:63
    INDEX 01 37:19:38
Single:
  • Label: Танцевальный Рай ‎– LP-229
  • Format: CD, Maxi-Single
  • Country: Russia
  • Released: 2003

Прoдолжительность: 00:19:53

Трeклист:
01. Shake Your Head 2003 (Radio Edit) (3:31)
02. Shake Your Head 2003 (Extended Club Mix) (5:43)
03. Shake Your Head 2003 (Electric Space Mix) (4:41)
04. How Does It Feel (2:44)
05. Spring (3:15)
Код:
Exact Audio Copy V0.99 prebeta 3 from 28. July 2007

Отчёт EAC об извлечении, выполненном 28. октября 2007, 19:49

C.C.Catch / Shake Your Head 2003

Дисковод: _NEC    DVD_RW ND-4571A   Adapter: 1  ID: 0

Режим чтения                 : Достоверность
Использование точного потока : Да
Отключение кэша аудио        : Да
Использование указателей C2  : Нет

Коррекция смещения при чтении                     : 48
Способность читать области Lead-in и Lead-out     : Нет
Заполнение пропущенных сэмплов тишиной            : Да
Удаление блоков с тишиной в начале и конце        : Нет
При вычислениях CRC использовались нулевые сэмплы : Да
Интерфейс                                         : Встроенный Win32-интерфейс для Win NT/2000

Выходной формат : Внутренние WAV-операции
Формат сэмплов  : 44.100 Гц; 16 бит; стерео

TOC извлечённого CD

     Трек |   Старт  | Длительность | Начальный сектор | Конечный сектор
    ---------------------------------------------------------------------
       1  |  0:00.00 |    3:30.64   |           0      |      15813
       2  |  3:30.64 |    5:42.45   |       15814      |      41508
       3  |  9:13.34 |    4:40.72   |       41509      |      62580
       4  | 13:54.31 |    2:44.01   |       62581      |      74881
       5  | 16:38.32 |    3:14.55   |       74882      |      89486

Характеристики диапазона извлечения и сообщения об ошибках

Выбранный диапазон

     Имя файла Z:\Time\Temp\C.C.Catch\2003.Shake Your Head 2003\C.C.Catch - Shake Your Head 2003.wav

     Пиковый уровень 98.8 %
     Качество диапазона 100.0 %
     CRC копии 71798AB9
     Копирование... OK

Ошибок не произошло

Конец отчёта
Код:
-----------------------

DON'T MODIFY THIS FILE

-----------------------

PERFORMER: auCDtect Task Manager, ver. 1.6.0 RC1 build 1.6.0.1
Copyright (c) 2008-2010 y-soft. All rights reserved
http://y-soft.org

ANALYZER: auCDtect: CD records authenticity detector, version 0.8.2
Copyright (c) 2004 Oleg Berngardt. All rights reserved.
Copyright (c) 2004 Alexander Djourik. All rights reserved.

FILE: C.C.Catch - Shake Your Head 2003.wv
  Size: 151230397 Hash: 3C2E218AB21CEDF8EC7EE5E9B89A53DB Accuracy: -m0
  Conclusion: CDDA 100%
  Signature: 92ADF8D59CACA6E2987EB002A3E86C620304536E
Код:
REM GENRE Eurodance
REM DATE 2003
REM DISCID 2804A905
REM COMMENT "ExactAudioCopy v0.99pb3"
PERFORMER "C.C.Catch"
TITLE "Shake Your Head 2003"
FILE "C.C.Catch - Shake Your Head 2003.wv" WAVE
  TRACK 01 AUDIO
    TITLE "Shake Your Head 2003 (Radio Edit)"
    PERFORMER "C.C.Catch"
    INDEX 01 00:00:00
  TRACK 02 AUDIO
    TITLE "Shake Your Head 2003 (Extended Club Mix)"
    PERFORMER "C.C.Catch"
    INDEX 00 03:28:64
    INDEX 01 03:30:64
  TRACK 03 AUDIO
    TITLE "Shake Your Head 2003 (Electric Space Mix)"
    PERFORMER "C.C.Catch"
    INDEX 00 09:11:34
    INDEX 01 09:13:34
  TRACK 04 AUDIO
    TITLE "How Does It Feel"
    PERFORMER "C.C.Catch"
    INDEX 00 13:52:31
    INDEX 01 13:54:31
  TRACK 05 AUDIO
    TITLE "Spring"
    PERFORMER "C.C.Catch"
    INDEX 00 16:36:32
    INDEX 01 16:38:32
Compilations:
  • Label: Hansa ‎– 259 063
  • Format: CD, Compilation
  • Country: Germany
  • Released: 1988

Прoдолжительность: 00:55:53

Трeклист:
01. House Of Mystic Lights (4:11)
02. Are You Man Enough (3:39)
03. 'Cause You Are Young (3:31)
04. Don't Shoot My Sheriff Tonight (3:11)
05. Heartbreak Hotel (3:37)
06. Soul Survivor (3:18)
07. Strangers By Night (3:40)
08. I Can Lose My Heart Tonight (3:51)
09. Heaven And Hell (3:40)
10. Do You Love As You Look (3:36)
11. House Of Mystic Lights (Radio Swing Mix) (3:05)
12. Heartbreak Hotel (Room 69 Mix) (4:56)
13. Strangers By Night (Extended Version) (5:44)
14. I Can Lose My Heart Tonight (Extended Club Remix) (5:55)
Код:
Отчёт EAC об извлечении, выполненном 26. октября 2007, 1:34 для диска:
C.C.Catch / Diamonds

Дисковод: PLEXTOR DVDR   PX-716AL   Adapter: 2  ID: 0
Режим чтения: Достоверный (C2: нет, Точный поток: да, Отключение кэша: да)
Коррекция смещения при чтении: 30
Способность читать области Lead-in и Lead-out : Нет

Выходной формат: Внутренние WAV-операции
                     44.100 Гц; 16 бит; стерео

Другие параметры:
    Заполнение пропущенных сэмплов тишиной : Да
    Удаление блоков с тишиной в начале и конце : Нет
    Встроенный Win32-интерфейс для Win NT/2000

Характеристики диапазона извлечения и сообщения об ошибках
Выбранный диапазон
     Имя файла Z:\Time\Temp\C.C.Catch\1988.(1)Diamonds\C.C.Catch - Diamonds.wav

     Пиковый уровень 89.1 %
     Качество диапазона 100.0 %
     CRC CEC5A25B
     Копирование... OK

Ошибок не произошло

Конец отчёта
Код:
-----------------------

DON'T MODIFY THIS FILE

-----------------------

PERFORMER: auCDtect Task Manager, ver. 1.6.0 RC1 build 1.6.0.1
Copyright (c) 2008-2010 y-soft. All rights reserved
http://y-soft.org

ANALYZER: auCDtect: CD records authenticity detector, version 0.8.2
Copyright (c) 2004 Oleg Berngardt. All rights reserved.
Copyright (c) 2004 Alexander Djourik. All rights reserved.

FILE: C.C.Catch - Diamonds.wv
  Size: 427737175 Hash: 44D8D2E2D1ABC9613857DF702BCDA3FD Accuracy: -m0
  Conclusion: CDDA 100%
  Signature: F2B422AB8DAC8326DDA46ED5F5748BB89AD0CED4
Код:
REM GENRE Eurodance
REM DATE 1988
REM DISCID DC0D190E
REM COMMENT "ExactAudioCopy v0.95b4"
PERFORMER "C.C.Catch"
TITLE "Diamonds"
FILE "C.C.Catch - Diamonds.wv" WAVE
  TRACK 01 AUDIO
    TITLE "House Of Mystic Lights"
    PERFORMER "C.C.Catch"
    INDEX 01 00:00:00
  TRACK 02 AUDIO
    TITLE "Are You Man Enough"
    PERFORMER "C.C.Catch"
    INDEX 00 04:09:13
    INDEX 01 04:10:53
  TRACK 03 AUDIO
    TITLE "'Cause You Are Young"
    PERFORMER "C.C.Catch"
    INDEX 00 07:48:59
    INDEX 01 07:49:68
  TRACK 04 AUDIO
    TITLE "Don't Shoot My Sheriff Tonight"
    PERFORMER "C.C.Catch"
    INDEX 00 11:19:15
    INDEX 01 11:20:40
  TRACK 05 AUDIO
    TITLE "Heartbreak Hotel"
    PERFORMER "C.C.Catch"
    INDEX 00 14:30:09
    INDEX 01 14:31:13
  TRACK 06 AUDIO
    TITLE "Soul Survivor"
    PERFORMER "C.C.Catch"
    INDEX 00 18:06:65
    INDEX 01 18:08:05
  TRACK 07 AUDIO
    TITLE "Strangers By Night"
    PERFORMER "C.C.Catch"
    INDEX 00 21:24:38
    INDEX 01 21:25:48
  TRACK 08 AUDIO
    TITLE "I Can Lose My Heart Tonight"
    PERFORMER "C.C.Catch"
    INDEX 00 25:04:10
    INDEX 01 25:05:30
  TRACK 09 AUDIO
    TITLE "Heaven And Hell"
    PERFORMER "C.C.Catch"
    INDEX 00 28:55:53
    INDEX 01 28:56:43
  TRACK 10 AUDIO
    TITLE "Do You Love As You Look"
    PERFORMER "C.C.Catch"
    INDEX 00 32:35:51
    INDEX 01 32:36:48
  TRACK 11 AUDIO
    TITLE "House Of Mystic Lights (Radio Swing Mix)"
    PERFORMER "C.C.Catch"
    INDEX 00 36:11:03
    INDEX 01 36:12:43
  TRACK 12 AUDIO
    TITLE "Heartbreak Hotel (Room 69 Mix)"
    PERFORMER "C.C.Catch"
    INDEX 00 39:16:45
    INDEX 01 39:17:43
  TRACK 13 AUDIO
    TITLE "Strangers By Night (Extended Version)"
    PERFORMER "C.C.Catch"
    INDEX 00 44:12:23
    INDEX 01 44:13:48
  TRACK 14 AUDIO
    TITLE "I Can Lose My Heart Tonight (Extended Club Remix)"
    PERFORMER "C.C.Catch"
    INDEX 00 49:56:59
    INDEX 01 49:57:73
  • Label: Hansa ‎– 74321 62125-2
  • Format: CD, Compilation
  • Country: Germany
  • Released: 1998

Прoдолжительность: 01:18:03

Трeклист:
01. I Can Lose My Heart Tonight (Rap Version) (3:14)
02. Soul Survivor (Rap Version) (3:04)
03. Cause You Are Young (3:29)
04. Heartbreak Hotel (3:35)
05. Strangers By Night (3:39)
06. Heaven And Hell (3:39)
07. Backseat Of Your Cadillac (3:22)
08. I Can Lose My Heart Tonight (New Vocal Version) (3:31)
09. Soul Survivor (New Vocal Version) (3:39)
10. Jump In My Car (3:50)
11. Are You Man Enough (3:38)
12. Good Guys Only Win In Movies (5:44)
13. Dancing In Shadows (3:36)
14. House Of Mystic Lights (3:05)
15. Nothing But A Heartache (3:03)
16. Summer Kisses (3:51)
17. Soul Survivor (3:17)
18. I Can Lose My Heart Tonight (3:50)
19. C.C. Catch Megamix (Short Version) (4:56)
20. C.C. Catch Megamix (Long Version) (8:01)
Код:
Отчёт EAC об извлечении, выполненном 28. октября 2007, 19:13 для диска:
C.C.Catch / Best Of '98

Дисковод: PLEXTOR DVDR   PX-716AL   Adapter: 2  ID: 0
Режим чтения: Достоверный (C2: нет, Точный поток: да, Отключение кэша: да)
Коррекция смещения при чтении: 30
Способность читать области Lead-in и Lead-out : Нет

Выходной формат: Внутренние WAV-операции
                     44.100 Гц; 16 бит; стерео

Другие параметры:
    Заполнение пропущенных сэмплов тишиной : Да
    Удаление блоков с тишиной в начале и конце : Нет
    Встроенный Win32-интерфейс для Win NT/2000

Характеристики диапазона извлечения и сообщения об ошибках
Выбранный диапазон
     Имя файла Z:\Time\Temp\C.C.Catch\1998.Best Of '98\C.C.Catch - Best Of '98.wav

     Пиковый уровень 100.0 %
     Качество диапазона 99.9 %
     CRC 2744DB6E
     Копирование... OK

Ошибок не произошло

Конец отчёта
Код:
-----------------------

DON'T MODIFY THIS FILE

-----------------------

PERFORMER: auCDtect Task Manager, ver. 1.6.0 RC1 build 1.6.0.1
Copyright (c) 2008-2010 y-soft. All rights reserved
http://y-soft.org

ANALYZER: auCDtect: CD records authenticity detector, version 0.8.2
Copyright (c) 2004 Oleg Berngardt. All rights reserved.
Copyright (c) 2004 Alexander Djourik. All rights reserved.

FILE: C.C.Catch - Best Of '98.wv
  Size: 619640435 Hash: 83D86B74E4EE9377BBC3161FF8109D1A Accuracy: -m0
  Conclusion: CDDA 100%
  Signature: 8016A8DA7225CB2369D072C17397713977F34224
Код:
REM GENRE Eurodance
REM DATE 1998
REM DISCID 25124B14
REM COMMENT "ExactAudioCopy v0.95b4"
PERFORMER "C.C.Catch"
TITLE "Best Of '98"
FILE "C.C.Catch - Best Of '98.wv" WAVE
  TRACK 01 AUDIO
    TITLE "I Can Lose My Heart Tonight (Rap Version)"
    PERFORMER "C.C.Catch"
    INDEX 00 00:00:00
    INDEX 01 00:00:32
  TRACK 02 AUDIO
    TITLE "Soul Survivor (Rap Version)"
    PERFORMER "C.C.Catch"
    INDEX 00 03:13:30
    INDEX 01 03:14:32
  TRACK 03 AUDIO
    TITLE "Cause You Are Young"
    PERFORMER "C.C.Catch"
    INDEX 00 06:17:15
    INDEX 01 06:17:70
  TRACK 04 AUDIO
    TITLE "Heartbreak Hotel"
    PERFORMER "C.C.Catch"
    INDEX 00 09:46:30
    INDEX 01 09:47:32
  TRACK 05 AUDIO
    TITLE "Strangers By Night"
    PERFORMER "C.C.Catch"
    INDEX 00 13:21:65
    INDEX 01 13:22:57
  TRACK 06 AUDIO
    TITLE "Heaven And Hell"
    PERFORMER "C.C.Catch"
    INDEX 00 17:00:50
    INDEX 01 17:01:40
  TRACK 07 AUDIO
    TITLE "Backseat Of Your Cadillac"
    PERFORMER "C.C.Catch"
    INDEX 00 20:39:25
    INDEX 01 20:40:37
  TRACK 08 AUDIO
    TITLE "I Can Lose My Heart Tonight (New Vocal Version)"
    PERFORMER "C.C.Catch"
    INDEX 00 24:01:72
    INDEX 01 24:02:45
  TRACK 09 AUDIO
    TITLE "Soul Survivor (New Vocal Version)"
    PERFORMER "C.C.Catch"
    INDEX 00 27:32:72
    INDEX 01 27:33:62
  TRACK 10 AUDIO
    TITLE "Jump In My Car"
    PERFORMER "C.C.Catch"
    INDEX 00 31:11:70
    INDEX 01 31:12:57
  TRACK 11 AUDIO
    TITLE "Are You Man Enough"
    PERFORMER "C.C.Catch"
    INDEX 00 35:02:10
    INDEX 01 35:03:00
  TRACK 12 AUDIO
    TITLE "Good Guys Only Win In Movies"
    PERFORMER "C.C.Catch"
    INDEX 00 38:40:15
    INDEX 01 38:41:15
  TRACK 13 AUDIO
    TITLE "Dancing In Shadows"
    PERFORMER "C.C.Catch"
    INDEX 00 44:23:67
    INDEX 01 44:25:17
  TRACK 14 AUDIO
    TITLE "House Of Mystic Lights"
    PERFORMER "C.C.Catch"
    INDEX 00 47:59:62
    INDEX 01 48:00:67
  TRACK 15 AUDIO
    TITLE "Nothing But A Heartache"
    PERFORMER "C.C.Catch"
    INDEX 00 51:04:50
    INDEX 01 51:05:42
  TRACK 16 AUDIO
    TITLE "Summer Kisses"
    PERFORMER "C.C.Catch"
    INDEX 00 54:07:50
    INDEX 01 54:08:37
  TRACK 17 AUDIO
    TITLE "Soul Survivor"
    PERFORMER "C.C.Catch"
    INDEX 00 57:57:70
    INDEX 01 57:59:57
  TRACK 18 AUDIO
    TITLE "I Can Lose My Heart Tonight"
    PERFORMER "C.C.Catch"
    INDEX 00 61:16:00
    INDEX 01 61:17:00
  TRACK 19 AUDIO
    TITLE "C.C. Catch Megamix (Short Version)"
    PERFORMER "C.C.Catch"
    INDEX 00 65:05:67
    INDEX 01 65:06:72
  TRACK 20 AUDIO
    TITLE "C.C. Catch Megamix (Long Version)"
    PERFORMER "C.C.Catch"
    INDEX 00 70:02:12
    INDEX 01 70:02:67
Время раздачи: 24/7 - круглосуточно


Поглощение/вытеснение
Только с согласия релизера

DesideriuM

Реставрация релиза: DesideriuM
Краткий курс по работе с iso.wv
Если в результате скачивания релиза вы увидите название файла:

Код:
C.C.Catch.Catch.The.Catch.1986.wv.cue.log.covers.iso.wv


не пугайтесь. Это действительно ваш любимый альбом вашего любимого исполнителя в самом что ни на есть оригинальном качестве звука бережно сохраненном кодеком WavPack, да еще и с обложками. Только все файлы релиза запечатаны не в привычный архив, а в образ iso. На этом месте у любого мыслящего человека возникает два вопроса: "зачем это нужно?" и "что с этим делать?" Именно об этом пойдет речь дальше. Начнем со второго вопроса.

Что с этим делать?

ВАРИАНТ 1 (скучный)
Распаковать как обычный архив
Скачаный релиз можно употребить традиционным способом - распаковать при помощи WinRAR, который умеет непринужденно извлекать файлы из ISO-образов. В этом смысле ваше приобретение ничем не отличается от обычного архива.

Даже если вы собираетесь сразу прожигать релиз на аудио-CD и стереть скачанный файл, не поделившись им с другими (так делать нехорошо, но...) - нет необходимости распаковывать релизный файл. Почему? Да потому что это - ISO!

ВАРИАНТ 2 (интереснее)
Смонтировать в виртуальный CD-ROM


Образ ISO можно смонтировать в виртуальном CD-приводе при помощи программы Daemon Tools, MagicDISC (freeware), Alcohol 120% или подобной.

В результате на виртуальном CD-ROM вы увидите привычную картину.

Программы для работы с ISO-образами перечислены здесь

После того, как виртуальный диск смонтирован, можно слушать скачанный файл любым плеером, знающим что делать с файлом cue. В качестве рекомендуемого плеера здесь и далее будет подразумеваться наиболее популярная на сегодня программа для проигрывания музыки lossless форматов foobar 2000.

Отдельно стоит отметить возможность прожечь CD-audio из смонтированного ISO без предварительного преобразования сжатого файла в wav - с распаковыванием на лету. Для этого понадобятся дополнительные настройки программы записи CD, но если вы слушаете музыку с бытового плеера, то оцените это преимущество ISO-релиза перед традиционным RAR-форматом.

Вариант с монтированием ISO выгодно отличается от распаковки тем, что ничего распаковывать не надо. Релиз можно как обычно слушать, можно смотреть картинки обложек, а когда надоест – демонтировать ISO. Весь процесс не требует дополнительного места на диске.

Этот вариант удобен для тех, кто знаком с нехитрым способом превратить ISO в виртуальный дисковод. Но для прослушивания релиза такой метод слишком сложен. Потому что есть...

ВАРИАНТ 3 (самый интересный)
Без распаковки, монтажа и каких бы то ни было посторонних действий

Если файл релиза имеет расширение iso - переименуйте его в .wv и откройте в плеере. На этом месте должно произойти чудо. В плеере появится список композиций альбома и динамики содрогнутся от музыки. Файл, который только что одна программа считала архивом, другая – образом CD, теперь воспринимается foobar’ом как музыкальный, да еще и со списком треков.

На этом сюрпризы не заканчиваются. В свойствах чудо-файла, только что бывшего ISO, вы найдете тот самый CUE, из которого foobar прочитал список композиций.

CUE "спрятан" в тэг CUESHEET по стандарту APEv2, который поддерживают все уважающие себя плееры. Кроме того, в другой стандартный тэг - LOG - прошит лог программы Exact Audio Copy, по которому искушенный меломан может определить насколько добросовестно релизер превратил аудио-CD в файл.

Теоретически стандарт APEv2 предусматривает любое количество произвольных тэгов (в т.ч. даже jpeg обложек), поэтому если вы увидите что-то еще, кроме изображённого на картинке – значит, прогресс идет и это краткое руководство нуждается в обновлении.

Никаких странностей в таком переименованном ISO плеер не замечает.
В этом варианте файл можно без приложения каких-либо усилий по переупаковке хранить на диске как для прослушивания, так и для того, чтобы делиться им с народом (тем же путем, которым вы этот файл скачали).

Зачем это надо?

Если после прочтения всего вышесказанного вопрос "зачем надо?" вас еще беспокоит, то вот сухой остаток:

1. Релиз, сделанный в ISO-стандарте можно (и нужно) хранить на диске не распаковывая, в том виде, в котором вы его получили. При этом он полностью функционален и как архив, и как CD-образ, и как готовый для прослушивания музыкальный файл со встроенным внутрь CUE.

2. ISO-релизы в том же виде, в котором они скачивались, можно убирать в архив – записывать на CD и DVD, чтобы затем слушать прямо с носителей.

3. Поскольку релизный файл в процессе эксплуатации и, тем более, хранения остается неизменным, то в случае необходимости поделиться старым релизом с друзьями через p2p сеть – у вас есть оригинальный файл и вы всегда сможете поддержать раздачу вместо того, чтобы раздавать диск заново.

Важно! К сожалению, человеческая мысль не стоит на месте и уже обнаружен сторонний плагин к foobar2000, хранящий (и изменяющий!) статистическую информацию в тэгах файлов. Для предохранения от подобных вредоносных действий излишне умных программ и обеспечения неизменности релиза в процессе хранения на компьютере, очень рекомендую ставить на них атрибут read-only сразу после скачивания.

Надеюсь, этот скромный труд убедил вас, что при виде релиза с расширением *.iso нет поводов для сомнений и беспокойства. Релизеры уже сделали все, чтобы вы ничего не делали, и остается только пожелать вам: ПРИЯТНОГО ПРОСЛУШИВАНИЯ!
Автор: bubamara (NetLab)
[NNM-Club.info] C.C. Catch - Discography.torrent
 Торрент: Платиновая раздача  Зарегистрирован
 
Скачать


 Зарегистрирован:   24 Окт 2008 13:04:54
 Размер:   2,43 GB  (
 Рейтинг:   5 (Голосов: 109)
 Поблагодарили:   336
 Проверка:   Оформление проверено модератором 24 Окт 2008 15:45:45
Как cкачать  ·  Как раздать  ·  Правильно оформить  ·  Поднять ратио!  
tegoffs
Виниловод. Сталкер
Стаж: 11 лет 9 мес.
Сообщений: 2931
Ratio: 17,532
Поблагодарили: 9467
100%
Откуда: мне знать?
honduras.gif
vitolinform
Убедительнейший релиз, спасибо большое!
Kavasar
Релизер
Стаж: 11 лет 4 мес.
Сообщений: 779
Ratio: 47,75
Раздал: 14,42 TB
Поблагодарили: 20519
100%
Откуда: Необъятные просторы Земли
cod4.gif
Круто!!!!!!!!!
Знакомые отчеты ЕАС :задумался:
Дружбан мой с Питера это зарелизил год назад на одном всем известном торренте :супер!:

_________________
Приобретение денег требует доблести; сохранение денег требует рассудительности; трата денег требует искусства. (Бертольд Авербах)
qwweerr
Стаж: 11 лет 8 мес.
Сообщений: 18
Ratio: 26,514
100%
Откуда: Москва
russia.gif
...а теперь скажем "спасибо", что vitolinform поделился релизом Вашего, ёёёdgjёёё, друга на данном форуме! И не забудем о благодарности тому, кто потрудился скопировать эти альбомы.
vitolinform ®
Стаж: 12 лет 2 мес.
Сообщений: 168
Ratio: 8,754
Поблагодарили: 2601
100%
Откуда: Благовещенск
russia.gif
ёёёdgjёёё
ну там немного другие релизы, если вы обратите внимание. Там APE, а у меня WAVPack ;)
Kavasar
Релизер
Стаж: 11 лет 4 мес.
Сообщений: 779
Ratio: 47,75
Раздал: 14,42 TB
Поблагодарили: 20519
100%
Откуда: Необъятные просторы Земли
cod4.gif
В любом случае респект релизеру :приветствую:
Если честно - сам готовил его выложить в выходные, но видно не судьба :огорчение:

_________________
Приобретение денег требует доблести; сохранение денег требует рассудительности; трата денег требует искусства. (Бертольд Авербах)
vitolinform ®
Стаж: 12 лет 2 мес.
Сообщений: 168
Ratio: 8,754
Поблагодарили: 2601
100%
Откуда: Благовещенск
russia.gif
ёёёdgjёёё
ну извини :)

Так у нее же еще куча сигнлов. Их выкладывай ;)
Kavasar
Релизер
Стаж: 11 лет 4 мес.
Сообщений: 779
Ratio: 47,75
Раздал: 14,42 TB
Поблагодарили: 20519
100%
Откуда: Необъятные просторы Земли
cod4.gif
С синглами работать не интересно, да я их и не коллекционирую - только официальные альбомы (тем более - вся классика в этой коллекции - остальное третий сорт):приветствую:
Буду готовить другой релиз :супер!:
Будем надеется, что ни кто не опередит :показывает язык:

:пока:

_________________
Приобретение денег требует доблести; сохранение денег требует рассудительности; трата денег требует искусства. (Бертольд Авербах)
Soldier_O​f_Fortune​
Стаж: 11 лет 7 мес.
Сообщений: 135
Ratio: 47,811
100%
senegal.gif
Прикольно. В cue стоит ссылка на ".wav", а сам файл ".wv".
Это относится к
1986 - Catch The Catch
1986 - Welcome To The Heartbreak Hotel
1987 - Like A Hurricane

По трекам не послушать не изменяя релиз. :нет:

В остальных образах совпадают.

_________________
Shit happens...
VirusBIN
Сталкер
Стаж: 11 лет 9 мес.
Сообщений: 28820
Ratio: 54,501
Поблагодарили: 9513
100%
Откуда: Beverly Восточное
witch.png
Soldier_Of_Fortune
Открываете куе в блокноте, исправляете вав на вв, и сохраняете как ***.wv.cue - и ничего в релизе не изменяется! Только когда сохраняете - внизу надо выбрать "все файлы" а не "текстовые файлы".

_________________
Правила раздела :: Сделать треклист :: auCDtect Task Manager :: TagScanner :: EAC :: CUE
Google: «Скорее всего, на картинке девушка с шампанским»
Sabbather
Стаж: 10 лет 2 мес.
Сообщений: 188
Ratio: 9,808
100%
krevedko.png
Зочот аффтару
lesham09
Стаж: 9 лет 4 мес.
Сообщений: 16
Ratio: 4,944
100%
russia.gif
поглядим поглядим :задумался:
Sergey.va​dretsky​
Стаж: 8 лет 6 мес.
Сообщений: 244
Ratio: 130,162
100%
Откуда: Москва
russia.gif
Большое Спасибо!!! C.C.Catch - Forever - The Best - Super - Disco 80'х раздающему 100 Баллов в профиль... :респект: :клево: :выпивают: :ура:
lld2002
Стаж: 4 года 2 мес.
Сообщений: 1
Ratio: 0,122
0%
Очень приличненько!! Спасибо.
Technoj
Стаж: 8 лет 6 мес.
Сообщений: 142
Ratio: 1,904
100%
Откуда: где-то на Украине
ukraine.gif
Объясните как это превратить в отдельные файлы?? MediaHuman Audio Converter выдаёт всё время инвалид!
Показать сообщения:   
Начать новую тему   Ответить на тему    Торрент-трекер NNM-Club -> Pop -> Disco, Italo-Disco, Euro-Disco, Hi-NRG (Lossless) Часовой пояс: GMT + 3
Страницы:  1, 2  След.
Страница 1 из 2