Классический форум-трекер
canvas not supported
Нас вместе: 4 078 118

Счастливая звезда / Талисман удачи / Lucky Charm / Kismat Konnection (2008) DVDRip


Страницы:   Пред.  1, 2 
 
RSS
Начать новую тему   Ответить на тему    Торрент-трекер NNM-Club -> Зарубежное кино -> Азиатское кино (HD*Rip/LQ, DVDRip, SATRip, VHSRip)
Автор Сообщение
YuryE ®
Uploaders 100+
 
Стаж: 12 лет 8 мес.
Сообщений: 1982
Ratio: 2804,113
Поблагодарили: 96589
100%
russia.gif
Счастливая звезда / Талисман удачи / Lucky Charm / Kismat Konnection (2008) DVDRip
Год выпуска: 2008
Производство: Индия / Tips Films Pvt. Ltd., Tips Industries
Жанр: Драма, Мелодрама, Комедия

Описание фильма:
Это история об архитекторе Радже Мальхотра. Он патологический неудачник. Будильник не сработал, в душе закончилась вода, сломалась машина по пути на работу, да и клиентами Бог не жалует. Его подруга Хасина утверждает, что он родился под несчастливой звездой и советует ему найти человека, который может изменить его жизнь. Так Радж встречает Прийю — девушку, всегда готовую помочь. После знакомства с Прийей жизнь Раджа резко меняется...

Режиссер: Азиз Мирза
Актеры: Шахид Капур, Видья Балан, Вишал Малхотра, Ом Пури, Химани Шивпури, Хайдар Али, Шехназ Ананд, Джухи Чавла, Каранвир Бохра, Амит Варма

Продолжительность: 02:31:10
Качество видео: DVDRip
Перевод: Многоголосый закадровый



Дата мировой премьеры: 18 июля 2008
Дата выхода DVD релиза: 30 июля 2009, «Русское счастье»

Видео: MPEG-4 XviD, 704x288 (2.40:1), 23.976 fps, ~1478 Kb/s (0.304 bit/pixel)
Аудио: AC-3, 48,0 KHz, 5.1 ch, 448 Kb/s, CBR | Russian
Код:
Общее
Полное имя                               : Kismat.Konnection.2008.P.DVDRip.avi
Формат                                   : AVI
Формат/Информация                        : Audio Video Interleave
Профиль формата                          : OpenDML
Размер файла                             : 2,05 Гбайт
Продолжительность                        : 2 ч. 31 м.
Общий поток                              : 1938 Кбит/сек
Программа кодирования                    : VirtualDubMod 1.5.10.2 (build 2542/release)
Библиотека кодирования                   : VirtualDubMod build 2542/release

Видео
Идентификатор                            : 0
Формат                                   : MPEG-4 Visual
Профиль формата                          : Advanced Simple@L5
Параметр BVOP формата                    : 1
Параметр QPel формата                    : Нет
Параметр GMC формата                     : Без точки перехода
Параметр матрицы формата                 : Default (H.263)
Режим смешивания                         : Сжатый битовый поток
Идентификатор кодека                     : XVID
Идентификатор кодека/Подсказка           : XviD
Продолжительность                        : 2 ч. 31 м.
Битрейт                                  : 1478 Кбит/сек
Ширина                                   : 704 пикселя
Высота                                   : 288 пикселей
Соотношение сторон                       : 2,40:1
Частота кадров                           : 23,976 кадра/сек
Цветовое пространство                    : YUV
Субдискретизация насыщенности            : 4:2:0
Битовая глубина                          : 8 бит
Тип развёртки                            : Прогрессивная
Метод сжатия                             : С потерями
Бит/(Пиксели*Кадры)                      : 0.304
Размер потока                            : 1,56 Гбайт (76%)
Библиотека кодирования                   : XviD 1.1.0 (UTC 2005-11-22)

Аудио
Идентификатор                            : 1
Формат                                   : AC-3
Формат/Информация                        : Audio Coding 3
Расширение режима                        : CM (complete main)
Параметр Endianness формата              : Big
Идентификатор кодека                     : 2000
Продолжительность                        : 2 ч. 31 м.
Вид битрейта                             : Постоянный
Битрейт                                  : 448 Кбит/сек
Каналы                                   : 6 каналов
Расположение каналов                     : Front: L C R, Side: L R, LFE
Частота                                  : 48,0 КГц
Битовая глубина                          : 16 бит
Метод сжатия                             : С потерями
Размер потока                            : 484 Мбайт (23%)
Выравнивание                             : Разделение по промежуткам
Продолжительность промежутка             : 42  мс. (1,00 видеокадр)
Время предзагрузки промежутка            : 500  мс.
Скриншоты:

Реставрация от: Viсtоr
Спасибо за
[NNM-Club.info] Kismat.Konnection.2008.P.DVDRip.torrent
 Торрент: Платиновая раздача  Зарегистрирован
 
Скачать


 Зарегистрирован:   27 Окт 2008 21:20:58
 Размер:   2,05 GB  (
 Рейтинг:   4,6 (Голосов: 19)
 Поблагодарили:   46
 Проверка:   Оформление проверено модератором 28 Окт 2008 08:59:23
Как cкачать  ·  Как раздать  ·  Правильно оформить  ·  Поднять ратио!  
Parus70
Стаж: 11 лет 4 мес.
Сообщений: 45
Ratio: 109,036
Поблагодарили: 64
100%
russia.gif
Спасибо! Прикольно
Показать сообщения:   
Начать новую тему   Ответить на тему    Торрент-трекер NNM-Club -> Зарубежное кино -> Азиатское кино (HD*Rip/LQ, DVDRip, SATRip, VHSRip) Часовой пояс: GMT + 3
Страницы:   Пред.  1, 2
Страница 2 из 2