Интеллигентный торрент-трекер
canvas not supported
Нас вместе: 4 348 475

Крутые меры / Bastille Day (2016) BDRip [H.264/720p] [EN / EN Sub]


 
 
RSS
Начать новую тему   Ответить на тему    Торрент-трекер NNM-Club -> Зарубежное кино -> Фильмы в оригинале (HD)
Автор Сообщение
smaster67 ®
Модератор Видео
Покровитель талантов Uploader 300+
Стаж: 7 лет 10 мес.
Сообщений: 6629
Ratio: 198,571
Поблагодарили: 192352
100%
Крутые меры / Bastille Day (2016) BDRip [H.264/720p] [EN / EN Sub]

Производство: Великобритания, Франция, США, StudioCanal, Amazon Prime Instant Video, Anonymous Content, Anton Capital Entertainment, Canal+, TF1 Films Production, TF1, Vendome Pictures
Жанр: боевик, драма

Режиссер: Джеймс Уоткинс
Актеры: Идрис Эльба, Ричард Мэдден, Келли Райлли, Шарлотта Ле Бон, Александр Купер, Дэниэл Вествуд, Тони Пол Уэст, Хорхе Леон Мартинес, Эрик Эбони, Аттила Дж. Керекеш, ...

Описание:
Ловкий карманник Майкл Мэйсон привлекает внимание полиции и спецслужб, когда крадет сумку, содержащую гораздо больше, чем просто бумажник. На его след выходит дерзкий и резкий спецагент ЦРУ Шон Брайар. Вдвоем они становятся мишенью тайной преступной организации и в течение суток должны вывести злоумышленников на чистую воду.



Продолжительность: 01:31:49
Качество видео: BDRip
Перевод: Отсутствует
Язык озвучки: Английский
Язык субтитров: английский
Вид субтитров: вшитые, отключаемые

Видео: AVC, 4 469 kb/s, 1280 x 536 pixels
Аудио: английский / AC-3, 640 kb/s, 6 channels
Код:
  Bastille.Day.2016.720p.mkv
Format                                   : Matroska
Format version                           : Version 4 / Version 2
File size                                : 3.28 GiB
Duration                                 : 1h 31 min
Overall bit rate                         : 5 110 kb/s
Encoded date                             : UTC 2010-02-22 21:41:29
Writing application                      : no_variable_data
Writing library                          : no_variable_data

Video
ID                                       : 1
Format                                   : AVC
Format/Info                              : Advanced Video Codec
Format profile                           : High@L4.1
Format settings, CABAC                   : Yes
Format settings, ReFrames                : 5 frames
Codec ID                                 : V_MPEG4/ISO/AVC
Duration                                 : 1h 31 min
Bit rate                                 : 4 469 kb/s
Width                                    : 1 280 pixels
Height                                   : 536 pixels
Display aspect ratio                     : 2.40:1
Frame rate mode                          : Constant
Frame rate                               : 24.000 FPS
Color space                              : YUV
Chroma subsampling                       : 4:2:0
Bit depth                                : 8 bits
Scan type                                : Progressive
Bits/(Pixel*Frame)                       : 0.271
Stream size                              : 2.80 GiB (85%)
Writing library                          : x264 core 148 r2705 3f5ed56
Encoding settings                        : cabac=1 / ref=5 / deblock=1:-3:-3 / analyse=0x3:0x113 / me=umh / subme=8 / psy=1 / psy_rd=1.00:0.00 / mixed_ref=1 / me_range=16 / chroma_me=1 / trellis=1 / 8x8dct=1 / cqm=0 / deadzone=21,11 / fast_pskip=1 / chroma_qp_offset=-2 / threads=12 / lookahead_threads=2 / sliced_threads=0 / nr=0 / decimate=1 / interlaced=0 / bluray_compat=0 / constrained_intra=0 / bframes=3 / b_pyramid=2 / b_adapt=2 / b_bias=0 / direct=3 / weightb=1 / open_gop=0 / weightp=2 / keyint=240 / keyint_min=24 / scenecut=40 / intra_refresh=0 / rc_lookahead=50 / rc=2pass / mbtree=1 / bitrate=4469 / ratetol=1.0 / qcomp=0.60 / qpmin=0 / qpmax=69 / qpstep=4 / cplxblur=20.0 / qblur=0.5 / ip_ratio=1.40 / aq=3:0.80
Default                                  : Yes
Forced                                   : No
Statistics Tags Issue                    : no_variable_data 1970-01-01 00:00:00 / no_variable_data 2010-02-22 21:41:29
FromStats_BitRate                        : 4468412
FromStats_Duration                       : 01:31:49.000000000
FromStats_FrameCount                     : 132216
FromStats_StreamSize                     : 3077060748

Audio
ID                                       : 2
Format                                   : AC-3
Format/Info                              : Audio Coding 3
Mode extension                           : CM (complete main)
Format settings, Endianness              : Big
Codec ID                                 : A_AC3
Duration                                 : 1h 31 min
Bit rate mode                            : Constant
Bit rate                                 : 640 kb/s
Channel(s)                               : 6 channels
Channel positions                        : Front: L C R, Side: L R, LFE
Sampling rate                            : 48.0 kHz
Frame rate                               : 31.250 FPS (1536 spf)
Compression mode                         : Lossy
Stream size                              : 420 MiB (13%)
Language                                 : English
Default                                  : Yes
Forced                                   : No
Statistics Tags Issue                    : no_variable_data 1970-01-01 00:00:00 / no_variable_data 2010-02-22 21:41:29
FromStats_BitRate                        : 640000
FromStats_Duration                       : 01:31:49.120000000
FromStats_FrameCount                     : 172160
FromStats_StreamSize                     : 440729600

Text #1
ID                                       : 3
Format                                   : UTF-8
Codec ID                                 : S_TEXT/UTF8
Codec ID/Info                            : UTF-8 Plain Text
Language                                 : English
Default                                  : No
Forced                                   : No
Statistics Tags Issue                    : no_variable_data 1970-01-01 00:00:00 / no_variable_data 2010-02-22 21:41:29
FromStats_BitRate                        : 34
FromStats_Duration                       : 01:30:36.292000000
FromStats_FrameCount                     : 651
FromStats_StreamSize                     : 23393

Text #2
ID                                       : 4
Format                                   : UTF-8
Codec ID                                 : S_TEXT/UTF8
Codec ID/Info                            : UTF-8 Plain Text
Title                                    : SDH
Language                                 : English
Default                                  : No
Forced                                   : No
Statistics Tags Issue                    : no_variable_data 1970-01-01 00:00:00 / no_variable_data 2010-02-22 21:41:29
FromStats_BitRate                        : 37
FromStats_Duration                       : 01:30:40.250000000
FromStats_FrameCount                     : 763
FromStats_StreamSize                     : 25448

Menu
00:00:00.000                             : en:00:00:00.000
00:08:06.625                             : en:00:08:06.625
00:16:39.833                             : en:00:16:39.833
00:24:20.625                             : en:00:24:20.625
00:33:04.625                             : en:00:33:04.625
00:41:03.625                             : en:00:41:03.625
00:48:37.625                             : en:00:48:37.625
00:57:03.417                             : en:00:57:03.417
01:07:59.000                             : en:01:07:59.000
01:16:54.625                             : en:01:16:54.625
01:21:43.000                             : en:01:21:43.000
01:25:26.833                             : en:01:25:26.833

 

Скриншоты:



Время раздачи: с 13:00 до 23:00
[NNMClub.to]_Bastille.Day.2016.720p.mkv.torrent
 Торрент: Серебряная раздча  Зарегистрирован
 
Примагнититься
Free Leech
Зарегистрируйтесь и скачайте торрент!
16,6 KB
 Зарегистрирован:   15 Авг 2016 20:31:49
 Размер:   3,28 GB  (
 Рейтинг:    (Голосов: 8)
 Поблагодарили:   73
 Проверка:   Оформление проверено модератором 15 Авг 2016 20:32:54
Как cкачать  ·  Как раздать  ·  Правильно оформить  ·  Поднять ратио!  
Загрузка...
Nikos​trato​s​
Стаж: 4 года 5 мес.
Сообщений: 47
Ratio: 25,173
3.07%
russia.gif
На втором скрине затерялся двойник Роберта Дауни младшего))
kolde​ron12​345​
Стаж: 4 года 8 мес.
Сообщений: 12
Ratio: 14,856
100%
russia.gif
Неплохой фильм. Понравилась погоня по крышам, когда карманник спотыкался, неуклюже поскальзывался и натыкался на все подряд. Намного реалистичней показано поведение человека, в панике убегающего от преследователя. А то уже тошнит от идеальных постановочных погонь в стиле Бонда и Борна.
Показать сообщения:   
Начать новую тему   Ответить на тему    Торрент-трекер NNM-Club -> Зарубежное кино -> Фильмы в оригинале (HD) Часовой пояс: GMT + 3
Страница 1 из 1