Интеллигентный торрент-трекер
canvas not supported
Нас вместе: 4 348 008

Топ-модель / The Model (2016) BDRip [H.264/720p] [EN]


 
 
RSS
Начать новую тему   Ответить на тему    Торрент-трекер NNM-Club -> Зарубежное кино -> Фильмы в оригинале (HD)
Автор Сообщение
smaster67 ®
Модератор Видео
Покровитель талантов Uploader 300+
Стаж: 7 лет 10 мес.
Сообщений: 6629
Ratio: 198,453
Поблагодарили: 192335
100%
Топ-модель / The Model (2016) BDRip [H.264/720p] [EN]

Производство: Дания, Film Vаst, Zentropa Entertainments
Жанр: мелодрама

Режиссер: Мадс Маттисен
Актеры: Эд Скрейн, Клер Трэн, Мария Палм, Ивонник Мюллер, Кристиан Абарт, Доминик Оллберн, Верджил Брэмли, Тьерри Анкиссе, Марко Ильсе, ..

Описание:
Когда начинающая модель из глубинки Эмма получает приглашение в одно из ведущих модных агентств, она, ни секунды не сомневаясь, отправляется навстречу своей мечте в Париж. На одной из фотосессий она встречает успешного и привлекательного фотографа Шейна Уайта, в которого влюбляется. Однако мир моды диктует свои условия, и то, что поначалу складывалось для нее как сказка, начинает постепенно перерастать в опасную одержимость и настоящий ночной кошмар.



Продолжительность: 01:48:02
Качество видео: BDRip
Перевод: Отсутствует
Язык озвучки: Английский

Видео: AVC, 4 270 kb/s, 1280 x 688 pixels
Аудио: английский / DTS, 1 509 kb/s, 6 channels
Код:
  The Model -720p.mkv
Format                                   : Matroska
Format version                           : Version 4 / Version 2
File size                                : 4.36 GiB
Duration                                 : 1h 48 min
Overall bit rate                         : 5 778 kb/s
Encoded date                             : UTC 2016-08-16 19:24:38
Writing application                      : mkvmerge v8.9.0 ('Father Daughter') 64bit
Writing library                          : libebml v1.3.3 + libmatroska v1.4.4

Video
ID                                       : 1
Format                                   : AVC
Format/Info                              : Advanced Video Codec
Format profile                           : High@L4.1
Format settings, CABAC                   : Yes
Format settings, ReFrames                : 5 frames
Codec ID                                 : V_MPEG4/ISO/AVC
Duration                                 : 1h 48 min
Bit rate                                 : 4 270 kb/s
Width                                    : 1 280 pixels
Height                                   : 688 pixels
Display aspect ratio                     : 1.85:1
Frame rate mode                          : Constant
Frame rate                               : 24.000 FPS
Color space                              : YUV
Chroma subsampling                       : 4:2:0
Bit depth                                : 8 bits
Scan type                                : Progressive
Bits/(Pixel*Frame)                       : 0.202
Stream size                              : 3.22 GiB (74%)
Writing library                          : x264 core 148 r2705 3f5ed56
Encoding settings                        : cabac=1 / ref=5 / deblock=1:0:0 / analyse=0x3:0x113 / me=umh / subme=8 / psy=1 / psy_rd=1.00:0.00 / mixed_ref=1 / me_range=16 / chroma_me=1 / trellis=1 / 8x8dct=1 / cqm=0 / deadzone=21,11 / fast_pskip=0 / chroma_qp_offset=-2 / threads=12 / lookahead_threads=2 / sliced_threads=0 / nr=0 / decimate=1 / interlaced=0 / bluray_compat=0 / constrained_intra=0 / bframes=3 / b_pyramid=2 / b_adapt=2 / b_bias=0 / direct=3 / weightb=1 / open_gop=0 / weightp=2 / keyint=250 / keyint_min=24 / scenecut=40 / intra_refresh=0 / rc_lookahead=50 / rc=2pass / mbtree=1 / bitrate=4270 / ratetol=1.0 / qcomp=0.60 / qpmin=0 / qpmax=69 / qpstep=4 / cplxblur=20.0 / qblur=0.5 / ip_ratio=1.40 / aq=1:1.00
Default                                  : Yes
Forced                                   : No

Audio
ID                                       : 2
Format                                   : DTS
Format/Info                              : Digital Theater Systems
Mode                                     : 16
Format settings, Endianness              : Big
Codec ID                                 : A_DTS
Duration                                 : 1h 48 min
Bit rate mode                            : Constant
Bit rate                                 : 1 509 kb/s
Channel(s)                               : 6 channels
Channel positions                        : Front: L C R, Side: L R, LFE
Sampling rate                            : 48.0 kHz
Frame rate                               : 93.750 FPS (512 spf)
Bit depth                                : 24 bits
Compression mode                         : Lossy
Stream size                              : 1.14 GiB (26%)
Language                                 : English
Default                                  : Yes
Forced                                   : No

Menu
00:00:00.000                             : en:00:00:00.000
00:14:13.625                             : en:00:14:13.625
00:28:03.792                             : en:00:28:03.792
00:39:34.833                             : en:00:39:34.833
00:54:22.250                             : en:00:54:22.250
01:07:10.875                             : en:01:07:10.875
01:21:59.750                             : en:01:21:59.750
01:32:51.542                             : en:01:32:51.542

 

Скриншоты:



Время раздачи: с 13:00 до 23:00
[NNMClub.to]_The Model -720p.mkv.torrent
 Торрент: Серебряная раздча  Зарегистрирован
 
Примагнититься
Free Leech
Зарегистрируйтесь и скачайте торрент!
22 KB
 Зарегистрирован:   17 Авг 2016 06:21:37
 Размер:   4,36 GB  (
 Рейтинг:    (Голосов: 6)
 Поблагодарили:   40
 Проверка:   Оформление проверено модератором 17 Авг 2016 06:22:15
Как cкачать  ·  Как раздать  ·  Правильно оформить  ·  Поднять ратио!  
ssadmn
Стаж: 6 лет 8 мес.
Сообщений: 96
Ratio: 43,517
100%
ussr.gif
Модель - это уже не баба :)

_________________
Бухал морпех, слеза катилась, все танцевали под айфон. И на груди его светилась медаль «За взятый Вашингтон»! :)
Показать сообщения:   
Начать новую тему   Ответить на тему    Торрент-трекер NNM-Club -> Зарубежное кино -> Фильмы в оригинале (HD) Часовой пояс: GMT + 3
Страница 1 из 1