Интеллигентный торрент-трекер
canvas not supported
Нас вместе: 4 190 983

Дуэль / The Duel (2016) BDRemux [H.264/1080p] [EN / EN, Sp Sub]


 
 
RSS
Начать новую тему   Ответить на тему    Торрент-трекер NNM-Club -> Зарубежное кино -> Фильмы в оригинале (HD)
Автор Сообщение
smaster67 ®
Модератор Видео
Покровитель талантов Uploader 300+
Стаж: 7 лет 6 мес.
Сообщений: 6383
Ratio: 186,411
Поблагодарили: 179762
100%
Дуэль / The Duel (2016) BDRemux [H.264/1080p] [EN / EN, Sp Sub]

Производство: США, Mandeville Films, Atomic Entertainment, Media House Capital
Жанр: драма, вестерн

Режиссер: Киран Дарси-Смит
Актеры: Лиам Хемсворт, Эмори Коэн, Вуди Харрельсон, Уильям Херт, Алиси Брага, Уильям Сэдлер, Бенедикт Сэмюэл, Рафаэль Сбардж, Кристофер Берри, Сью-Линн Ансари, ...

Описание:
Фильм расскажет о техасском рейнджере Дэвиде, которого заслали во фронтир с целью расследования серии убийств. На месте ему предстоит познакомиться с Авраамом — проповедником, держащим в паническом страхе всю округу.



Продолжительность: 01:50:09
Качество видео: BDRemux
Перевод: Отсутствует
Язык озвучки: Английский
Язык субтитров: английский, испанский
Вид субтитров: вшитые, отключаемые

Видео: AVC, 20.4 Mb/s, 1920 x 1080 pixels
Аудио 1: английский / DTS-HD MА, 3 721 kb/s, 6 channels
Аудио 2: английский / AC-3, 192 kb/s, 2 channels
Код:
 The.Duel.2016.BluRay.1080p.DTS-HD.MA.5.1.AVC.REMUX-FraMeSToR\The.Duel.2016.BluRay.1080p.DTS-HD.MA.5.1.AVC.REMUX-FraMeSToR.mkv
Format                                   : Matroska
Format version                           : Version 4 / Version 2
File size                                : 18.8 GiB
Duration                                 : 1h 50 min
Overall bit rate mode                    : Variable
Overall bit rate                         : 24.4 Mb/s
Movie name                               : The Duel
Encoded date                             : UTC 2016-08-17 06:56:36
Writing application                      : mkvmerge v9.3.1 ('Mask Machine') 64bit
Writing library                          : libebml v1.3.4 + libmatroska v1.4.5

Video
ID                                       : 1
Format                                   : AVC
Format/Info                              : Advanced Video Codec
Format profile                           : High@L4.1
Format settings, CABAC                   : Yes
Format settings, ReFrames                : 4 frames
Codec ID                                 : V_MPEG4/ISO/AVC
Duration                                 : 1h 50 min
Bit rate mode                            : Variable
Bit rate                                 : 20.4 Mb/s
Maximum bit rate                         : 37.0 Mb/s
Width                                    : 1 920 pixels
Height                                   : 1 080 pixels
Display aspect ratio                     : 16:9
Frame rate mode                          : Constant
Frame rate                               : 23.976 (24000/1001) FPS
Color space                              : YUV
Chroma subsampling                       : 4:2:0
Bit depth                                : 8 bits
Scan type                                : Progressive
Bits/(Pixel*Frame)                       : 0.411
Stream size                              : 15.7 GiB (84%)
Default                                  : Yes
Forced                                   : No

Audio #1
ID                                       : 2
Format                                   : DTS
Format/Info                              : Digital Theater Systems
Format profile                           : MA / Core
Mode                                     : 16
Format settings, Endianness              : Big
Codec ID                                 : A_DTS
Duration                                 : 1h 50 min
Bit rate mode                            : Variable / Constant
Bit rate                                 : 3 721 kb/s / 1 509 kb/s
Channel(s)                               : 6 channels
Channel positions                        : Front: L C R, Side: L R, LFE
Sampling rate                            : 48.0 kHz
Frame rate                               : 93.750 FPS (512 spf)
Bit depth                                : 24 bits
Compression mode                         : Lossless / Lossy
Stream size                              : 2.86 GiB (15%)
Title                                    : DTS-HD MA 5.1
Language                                 : English
Default                                  : Yes
Forced                                   : No

Audio #2
ID                                       : 3
Format                                   : AC-3
Format/Info                              : Audio Coding 3
Mode extension                           : CM (complete main)
Format settings, Endianness              : Big
Codec ID                                 : A_AC3
Duration                                 : 1h 50 min
Bit rate mode                            : Constant
Bit rate                                 : 192 kb/s
Channel(s)                               : 2 channels
Channel positions                        : Front: L R
Sampling rate                            : 48.0 kHz
Frame rate                               : 31.250 FPS (1536 spf)
Compression mode                         : Lossy
Stream size                              : 151 MiB (1%)
Title                                    : Commentary by Kieran Darcy-Smith/Toby Corbett
Language                                 : English
Default                                  : No
Forced                                   : No

Text #1
ID                                       : 4
Format                                   : PGS
Codec ID                                 : S_HDMV/PGS
Codec ID/Info                            : Picture based subtitle format used on BDs/HD-DVDs
Duration                                 : 1h 41 min
Bit rate                                 : 23.6 kb/s
Count of elements                        : 1682
Stream size                              : 17.2 MiB (0%)
Title                                    : English
Language                                 : English
Default                                  : Yes
Forced                                   : No

Text #2
ID                                       : 5
Format                                   : PGS
Codec ID                                 : S_HDMV/PGS
Codec ID/Info                            : Picture based subtitle format used on BDs/HD-DVDs
Duration                                 : 1h 43 min
Bit rate                                 : 25.5 kb/s
Count of elements                        : 1952
Stream size                              : 18.9 MiB (0%)
Title                                    : English (SDH)
Language                                 : English
Default                                  : No
Forced                                   : No

Text #3
ID                                       : 6
Format                                   : PGS
Codec ID                                 : S_HDMV/PGS
Codec ID/Info                            : Picture based subtitle format used on BDs/HD-DVDs
Duration                                 : 1h 43 min
Bit rate                                 : 23.0 kb/s
Count of elements                        : 1654
Stream size                              : 17.1 MiB (0%)
Title                                    : Spanish (Latin American)
Language                                 : Spanish
Default                                  : No
Forced                                   : No

Menu
00:00:00.000                             : en:Chapter 1
00:06:00.735                             : en:Chapter 2
00:14:12.601                             : en:Chapter 3
00:19:39.219                             : en:Chapter 4
00:28:00.887                             : en:Chapter 5
00:33:35.388                             : en:Chapter 6
00:39:02.214                             : en:Chapter 7
00:45:32.646                             : en:Chapter 8
00:53:42.385                             : en:Chapter 9
00:59:32.986                             : en:Chapter 10
01:10:34.772                             : en:Chapter 11
01:21:52.324                             : en:Chapter 12
01:24:50.210                             : en:Chapter 13
01:29:47.298                             : en:Chapter 14
01:41:19.364                             : en:Chapter 15
01:44:57.874                             : en:Chapter 16

 

Скриншоты:



Время раздачи: с 13:00 до 23:00
[NNMClub.to]_The.Duel.2016.BluRay.1080p.DTS-HD.MA.5.1.AVC.REMUX-FraMeSToR.mkv.torrent
 Торрент: Золотая раздача  Зарегистрирован
 
Примагнититься

Зарегистрируйтесь и скачайте торрент!
94,2 KB
 Зарегистрирован:   17 Авг 2016 15:15:37
 Размер:   18,8 GB  (
 Рейтинг:    (Голосов: 5)
 Поблагодарили:   38
 Проверка:   Оформление проверено модератором 17 Авг 2016 15:16:50
Как cкачать  ·  Как раздать  ·  Правильно оформить  ·  Поднять ратио!  
snd17
Стаж: 6 лет 2 мес.
Сообщений: 30
Ratio: 34,925
2.98%
thailand.gif
Цитата:
которого заслали во фронтир
- объясните "не русскому" - что это значит
Капитан ТуТу
Стаж: 6 лет 11 мес.
Сообщений: 191
Ratio: 9,667
Поблагодарили: 2945
100%
russia.gif
snd17 писал(а): Перейти к сообщению
Цитата:
которого заслали во фронтир
- объясните "не русскому" - что это значит

Не благодари
Показать сообщения:   
Начать новую тему   Ответить на тему    Торрент-трекер NNM-Club -> Зарубежное кино -> Фильмы в оригинале (HD) Часовой пояс: GMT + 3
Страница 1 из 1