Интеллигентный торрент-трекер
canvas not supported
Нас вместе: 4 190 941

До встречи с тобой / Me Before You (2016) BDRemux [H.264/1080p] [EN / EN, Fr, Sp, Po Sub]


 
 
RSS
Начать новую тему   Ответить на тему    Торрент-трекер NNM-Club -> Зарубежное кино -> Фильмы в оригинале (HD)
Автор Сообщение
smaster67 ®
Модератор Видео
Покровитель талантов Uploader 300+
Стаж: 7 лет 6 мес.
Сообщений: 6381
Ratio: 186,364
Поблагодарили: 179722
100%
До встречи с тобой / Me Before You (2016) BDRemux [H.264/1080p] [EN / EN, Fr, Sp, Po Sub]

Производство: США, Великобритания, Metro-Goldwyn-Mayer, New Line Cinema
Жанр: драма

Режиссер: Теа Шэррок
Актеры: Эмилия Кларк, Сэм Клафлин, Дженна-Луиз Коулмэн, Мэттью Льюис, Чарльз Дэнс, Джоанна Ламли, Джанет МакТир, Ванесса Кирби, Брендан Койл, Александр Купер, ...

Описание:
Лу Кларк знает, сколько шагов от автобусной остановки до ее дома. Она знает, что ей очень нравится работа в кафе и что, скорее всего, она не любит своего бойфренда Патрика. Но Лу не знает, что вот-вот потеряет свою работу и что в ближайшем будущем ей понадобятся все силы, чтобы преодолеть свалившиеся на нее проблемы.
Уилл Трейнор знает, что сбивший его мотоциклист отнял у него желание жить. И он точно знает, что надо сделать, чтобы положить конец всему этому. Но он не знает, что Лу скоро ворвется в его мир буйством красок. И они оба не знают, что навсегда изменят жизнь друг друга.



Продолжительность: 01:50:14
Качество видео: BDRemux
Перевод: Отсутствует
Язык озвучки: Английский
Язык субтитров: английский, французский, испанский, португальский
Вид субтитров: вшитые, отключаемые

Видео: AVC, 27.9 Mb/s, 1920 x 1080 pixels
Аудио: английский / DTS-HD MА, 3 510 kb/s, 6 channels
Код:
  Me.Before.You.2016.REMUX.BluRay.1080p.AVC.DTS-HD.MA5.1-iFT\Me.Before.You.2016.REMUX.BluRay.1080p.AVC.DTS-HD.MA5.1-iFT.mkv
Format                                   : Matroska
Format version                           : Version 4 / Version 2
File size                                : 24.2 GiB
Duration                                 : 1h 50 min
Overall bit rate mode                    : Variable
Overall bit rate                         : 31.4 Mb/s
Encoded date                             : UTC 2016-08-17 11:51:50
Writing application                      : mkvmerge v8.5.1 ('Where you lead I will follow') 64bit
Writing library                          : libebml v1.3.3 + libmatroska v1.4.4

Video
ID                                       : 1
Format                                   : AVC
Format/Info                              : Advanced Video Codec
Format profile                           : High@L4.1
Format settings, CABAC                   : Yes
Format settings, ReFrames                : 2 frames
Format settings, GOP                     : M=1, N=10
Codec ID                                 : V_MPEG4/ISO/AVC
Duration                                 : 1h 50 min
Bit rate mode                            : Variable
Bit rate                                 : 27.9 Mb/s
Width                                    : 1 920 pixels
Height                                   : 1 080 pixels
Display aspect ratio                     : 16:9
Frame rate mode                          : Constant
Frame rate                               : 23.976 (24000/1001) FPS
Color space                              : YUV
Chroma subsampling                       : 4:2:0
Bit depth                                : 8 bits
Scan type                                : Progressive
Bits/(Pixel*Frame)                       : 0.561
Stream size                              : 21.5 GiB (89%)
Default                                  : No
Forced                                   : No

Audio
ID                                       : 2
Format                                   : DTS
Format/Info                              : Digital Theater Systems
Format profile                           : MA / Core
Mode                                     : 16
Format settings, Endianness              : Big
Codec ID                                 : A_DTS
Duration                                 : 1h 50 min
Bit rate mode                            : Variable / Constant
Bit rate                                 : 3 510 kb/s / 1 509 kb/s
Channel(s)                               : 6 channels
Channel positions                        : Front: L C R, Side: L R, LFE
Sampling rate                            : 48.0 kHz
Frame rate                               : 93.750 FPS (512 spf)
Bit depth                                : 24 bits
Compression mode                         : Lossless / Lossy
Stream size                              : 2.70 GiB (11%)
Language                                 : English
Default                                  : Yes
Forced                                   : No

Text #1
ID                                       : 3
Format                                   : PGS
Muxing mode                              : zlib
Codec ID                                 : S_HDMV/PGS
Codec ID/Info                            : Picture based subtitle format used on BDs/HD-DVDs
Duration                                 : 1h 49 min
Bit rate                                 : 12.6 kb/s
Count of elements                        : 3494
Stream size                              : 9.88 MiB (0%)
Language                                 : English
Default                                  : Yes
Forced                                   : No

Text #2
ID                                       : 4
Format                                   : PGS
Muxing mode                              : zlib
Codec ID                                 : S_HDMV/PGS
Codec ID/Info                            : Picture based subtitle format used on BDs/HD-DVDs
Duration                                 : 1h 49 min
Bit rate                                 : 10.6 kb/s
Count of elements                        : 3366
Stream size                              : 8.28 MiB (0%)
Language                                 : French
Default                                  : No
Forced                                   : No

Text #3
ID                                       : 5
Format                                   : PGS
Muxing mode                              : zlib
Codec ID                                 : S_HDMV/PGS
Codec ID/Info                            : Picture based subtitle format used on BDs/HD-DVDs
Duration                                 : 1h 49 min
Bit rate                                 : 10.9 kb/s
Count of elements                        : 3248
Stream size                              : 8.51 MiB (0%)
Language                                 : Spanish
Default                                  : No
Forced                                   : No

Text #4
ID                                       : 6
Format                                   : PGS
Muxing mode                              : zlib
Codec ID                                 : S_HDMV/PGS
Codec ID/Info                            : Picture based subtitle format used on BDs/HD-DVDs
Duration                                 : 1h 49 min
Bit rate                                 : 10.8 kb/s
Count of elements                        : 3260
Stream size                              : 8.47 MiB (0%)
Language                                 : Portuguese
Default                                  : No
Forced                                   : No

Text #5
ID                                       : 7
Format                                   : PGS
Muxing mode                              : zlib
Codec ID                                 : S_HDMV/PGS
Codec ID/Info                            : Picture based subtitle format used on BDs/HD-DVDs
Duration                                 : 1h 47 min
Bit rate                                 : 143 b/s
Count of elements                        : 42
Stream size                              : 113 KiB (0%)
Language                                 : French
Default                                  : No
Forced                                   : No

Menu
00:00:00.000                             : en:00:00:00.000
00:12:40.969                             : en:00:12:40.969
00:20:01.575                             : en:00:20:01.575
00:29:06.244                             : en:00:29:06.244
00:39:38.418                             : en:00:39:38.418
00:49:13.868                             : en:00:49:13.868
01:01:15.547                             : en:01:01:15.547
01:10:16.796                             : en:01:10:16.796
01:19:16.418                             : en:01:19:16.418
01:32:06.479                             : en:01:32:06.479
01:37:58.331                             : en:01:37:58.331
01:45:55.349                             : en:01:45:55.349

 

Скриншоты:



Время раздачи: с 13:00 до 23:00
[NNMClub.to]_Me.Before.You.2016.REMUX.BluRay.1080p.AVC.DTS-HD.MA5.1-iFT.mkv.torrent
 Торрент: Золотая раздача  Зарегистрирован
 
Примагнититься

Зарегистрируйтесь и скачайте торрент!
121 KB
 Зарегистрирован:   17 Авг 2016 20:18:29
 Размер:   24,2 GB  (
 Рейтинг:   4,6 (Голосов: 10)
 Поблагодарили:   52
 Проверка:   Оформление проверено модератором 17 Авг 2016 20:18:59
Как cкачать  ·  Как раздать  ·  Правильно оформить  ·  Поднять ратио!  
_ull
Стаж: 8 лет 9 мес.
Сообщений: 15
Ratio: 17
Поблагодарили: 310
9.02%
brazil.gif
Смотрел в кинотеатре, фильм хороший, но концовка не понравилась.
Deniskass
Стаж: 4 года
Сообщений: 435
Ratio: 129,575
100%
Откуда: Иркутск
russia.gif
По большому счету, бессмысленное кино, ни на что не вдохновляющее. Сравнивают с 1+1, некорректно, там есть смысл, есть вдохновляющее начало, не говоря уже об оптимизме. Снят красиво, конечно, но все равно не понятно, "что хотел сказать автор"
За релиз, Спасибо!
DieserWelt
Стаж: 5 лет 7 мес.
Сообщений: 430
Ratio: 160,648
Раздал: 3,414 TB
100%
Откуда: из-за Полярного круга
Долго, минуты 2, вглядывался в постер/скрины, но так и не вспомнил кто такая Эмилия Кларк... wiki, а GoT, ок.
Марселище
Стаж: 6 лет 10 мес.
Сообщений: 165
Ratio: 1,843
8.75%
russia.gif
эти кошмарные, живущие самостоятельной жизнью брови главной героини(((((((( бууэ
mikegod
Стаж: 6 лет
Сообщений: 5
Ratio: 11,385
3.51%
Где взять рус сабы? Без сабов никак не посмотреть, выручайте плс!
Показать сообщения:   
Начать новую тему   Ответить на тему    Торрент-трекер NNM-Club -> Зарубежное кино -> Фильмы в оригинале (HD) Часовой пояс: GMT + 3
Страница 1 из 1