Интеллигентный торрент-трекер
canvas not supported
Нас вместе: 4 203 106

Крутые меры / Bastille Day (2016) BDRemux [H.264/1080p] [EN / EN Sub]


 
 
RSS
Начать новую тему   Ответить на тему    Торрент-трекер NNM-Club -> Зарубежное кино -> Фильмы в оригинале (HD)
Автор Сообщение
smaster67 ®
Модератор Видео
Покровитель талантов Uploader 300+
Стаж: 7 лет 6 мес.
Сообщений: 6395
Ratio: 187,102
Поблагодарили: 180364
100%
Крутые меры / Bastille Day (2016) BDRemux [H.264/1080p] [EN / EN Sub]

Производство: Великобритания, Франция, США
Жанр: боевик, драма

Режиссер: Джеймс Уоткинс
Актеры: Идрис Эльба, Ричард Мэдден, Келли Райлли, Шарлотта Ле Бон, Анатол Юсеф, Хорхе Леон Мартинес, Хосе Гарсия, Карл Фаррер, Александр Купер, Эрик Эбони, Лаура Хидари, Джеват Келменди

Описание:
Ловкий карманник Майкл Мэйсон привлекает внимание полиции и спецслужб, когда крадет сумку, содержащую гораздо больше, чем просто бумажник. На его след выходит дерзкий и резкий спецагент ЦРУ Шон Брайар. Вдвоем они становятся мишенью тайной преступной организации и в течение суток должны вывести злоумышленников на чистую воду.



Продолжительность: 01:32:10
Качество видео: BDRemux
Перевод: Отсутствует
Язык озвучки: Английский
Язык субтитров: Английский
Вид субтитров: вшитые

Видео: AVC, 24.8 Mb/s, 1920 x 1080 pixels
Аудио: Atmos / TrueHD, 4 630 kb/s, 8 channels
Код:
   Bastille.Day.2016.REMUX.1080p.BluRay.AVC.TrueHD.7.1.Atmos-iFT\Bastille.Day.2016.REMUX.1080p.BluRay.AVC.TrueHD.7.1.Atmos-iFT.mkv
Format                                   : Matroska
Format version                           : Version 4 / Version 2
File size                                : 18.9 GiB
Duration                                 : 1h 32 min
Overall bit rate mode                    : Variable
Overall bit rate                         : 29.4 Mb/s
Encoded date                             : UTC 2016-08-19 15:34:30
Writing application                      : mkvmerge v8.9.0 ('Father Daughter') 64bit
Writing library                          : libebml v1.3.3 + libmatroska v1.4.4

Video
ID                                       : 1
Format                                   : AVC
Format/Info                              : Advanced Video Codec
Format profile                           : High@L4.1
Format settings, CABAC                   : Yes
Format settings, ReFrames                : 4 frames
Codec ID                                 : V_MPEG4/ISO/AVC
Duration                                 : 1h 31 min
Bit rate mode                            : Variable
Bit rate                                 : 24.8 Mb/s
Maximum bit rate                         : 28.0 Mb/s
Width                                    : 1 920 pixels
Height                                   : 1 080 pixels
Display aspect ratio                     : 16:9
Frame rate mode                          : Constant
Frame rate                               : 24.000 FPS
Color space                              : YUV
Chroma subsampling                       : 4:2:0
Bit depth                                : 8 bits
Scan type                                : Progressive
Bits/(Pixel*Frame)                       : 0.499
Stream size                              : 15.9 GiB (84%)
Default                                  : Yes
Forced                                   : No

Audio
ID                                       : 2
Format                                   : Atmos / TrueHD
Codec ID                                 : A_TRUEHD
Duration                                 : 1h 32 min
Bit rate mode                            : Variable
Bit rate                                 : 4 630 kb/s
Maximum bit rate                         : 8 844 kb/s
Channel(s)                               : Object Based / 8 channels
Channel positions                        : Object Based / Front: L C R, Side: L R, Back: L R, LFE
Sampling rate                            :  / 48.0 kHz
Frame rate                               : 1 200.000 FPS (40 spf)
Compression mode                         : Lossless
Stream size                              : 2.98 GiB (16%)
Default                                  : Yes
Forced                                   : No

Text
ID                                       : 3
Format                                   : PGS
Muxing mode                              : zlib
Codec ID                                 : S_HDMV/PGS
Codec ID/Info                            : Picture based subtitle format used on BDs/HD-DVDs
Duration                                 : 1h 30 min
Bit rate                                 : 12.4 kb/s
Count of elements                        : 1526
Stream size                              : 8.02 MiB (0%)
Default                                  : Yes
Forced                                   : No

Menu
00:00:00.000                             : en:Chapter 01
00:08:06.625                             : en:Chapter 02
00:16:39.833                             : en:Chapter 03
00:24:20.625                             : en:Chapter 04
00:33:04.625                             : en:Chapter 05
00:41:03.625                             : en:Chapter 06
00:48:37.625                             : en:Chapter 07
00:57:03.416                             : en:Chapter 08
01:07:59.000                             : en:Chapter 09
01:16:54.625                             : en:Chapter 10
01:21:43.000                             : en:Chapter 11
01:25:26.833                             : en:Chapter 12

 

Скриншоты:



Время раздачи: с 13:00 до 23:00
[NNMClub.to]_Bastille.Day.2016.REMUX.1080p.BluRay.AVC.TrueHD.7.1.Atmos-iFT.mkv.torrent
 Торрент: Золотая раздача  Зарегистрирован
 
Примагнититься
Free Leech
Зарегистрируйтесь и скачайте торрент!
95 KB
 Зарегистрирован:   19 Авг 2016 20:53:57
 Размер:   18,9 GB  (
 Рейтинг:    (Голосов: 5)
 Поблагодарили:   37
 Проверка:   Оформление проверено модератором 19 Авг 2016 20:55:41
Как cкачать  ·  Как раздать  ·  Правильно оформить  ·  Поднять ратио!  


Последний раз редактировалось: smaster67 (19 Авг 2016 21:16:47), всего редактировалось 2 раз(а)
kosopin
Стаж: 5 лет 4 мес.
Сообщений: 26
Ratio: 3,771
40.28%
Спасибо . А будет ли релиз с русской дорожкой в таком качестве?
lexandros
RG Releasers
Зам. Куратора Видео
 
Стаж: 3 года 7 мес.
Сообщений: 1440
Ratio: 530,571
Поблагодарили: 19558
100%
russia.gif
kosopin
Завтра будет с ХихиДоком... Не фонтан конечно, но лучшего перевода пока в сети нет.

_________________
Все исправлено? Напишите в ЛС. Ссылка на релиз в теле (а не в теме) сообщения - обязательна.
Набор модераторов в категорию Видео | Правила оформления релизов в разделе Видео | Тех. регламент размещения материалов в разделе Видео
Показать сообщения:   
Начать новую тему   Ответить на тему    Торрент-трекер NNM-Club -> Зарубежное кино -> Фильмы в оригинале (HD) Часовой пояс: GMT + 3
Страница 1 из 1