Интеллигентный торрент-трекер
canvas not supported
Нас вместе: 4 328 998

Иллюзия обмана 2 / Now You See Me 2 (2016) BDRemux [H.264/1080p] [EN / EN Sub]


 
 
RSS
Начать новую тему   Ответить на тему    Торрент-трекер NNM-Club -> Зарубежное кино -> Фильмы в оригинале (HD)
Автор Сообщение
smaster67 ®
Модератор Видео
Покровитель талантов Uploader 300+
Стаж: 8 лет
Сообщений: 6671
Ratio: 202,853
Поблагодарили: 194201
100%
Иллюзия обмана 2 / Now You See Me 2 (2016) BDRemux [H.264/1080p] [EN / EN Sub]

Производство: США, Китай, Великобритания, Канада
Жанр: боевик, триллер, комедия, криминал, детектив, приключения

Режиссер: Джон М. Чу
Актеры: Джесси Айзенберг, Марк Руффало, Вуди Харрельсон, Дэйв Франко, Дэниэл Рэдклифф, Лиззи Каплан, Джей Чоу, Санаа Лэтэн, Майкл Кейн, Морган Фриман, Дэвид Уоршофски, Тсаи Чин

Описание:
«Четыре всадника», команда лучших иллюзионистов мира, снова в сборе! Их «магия» стала еще совершеннее, а враги - опаснее. На сей раз им предстоит спасти свою репутацию и вывести на чистую воду жестокого техномагната...



Продолжительность: 02:09:29
Качество видео: BDRemux
Перевод: Отсутствует
Язык озвучки: Английский
Язык субтитров: Английский
Вид субтитров: вшитые, отключаемые

Видео: AVC, 40.0 Mb/s, 1920 x 1080 pixels
Аудио: AC-3, 384 kb/s, 6 channels
Код: выделить все
  Now.You.See.Me.2.2016.REMUX.1080p.BluRay.AVC.DD5.1-iFT\Now.You.See.Me.2.2016.REMUX.1080p.BluRay.AVC.DD5.1-iFT.mkv
Format                                   : Matroska
Format version                           : Version 4 / Version 2
File size                                : 36.6 GiB
Duration                                 : 2h 9 min
Overall bit rate mode                    : Variable
Overall bit rate                         : 40.5 Mb/s
Encoded date                             : UTC 2016-08-19 18:11:11
Writing application                      : mkvmerge v8.9.0 ('Father Daughter') 64bit
Writing library                          : libebml v1.3.3 + libmatroska v1.4.4

Video
ID                                       : 1
Format                                   : AVC
Format/Info                              : Advanced Video Codec
Format profile                           : High@L4.1
Format settings, CABAC                   : Yes
Format settings, ReFrames                : 4 frames
Codec ID                                 : V_MPEG4/ISO/AVC
Duration                                 : 2h 9 min
Bit rate mode                            : Variable
Bit rate                                 : 40.0 Mb/s
Width                                    : 1 920 pixels
Height                                   : 1 080 pixels
Display aspect ratio                     : 16:9
Frame rate mode                          : Constant
Frame rate                               : 24.000 FPS
Color space                              : YUV
Chroma subsampling                       : 4:2:0
Bit depth                                : 8 bits
Scan type                                : Progressive
Bits/(Pixel*Frame)                       : 0.804
Stream size                              : 36.2 GiB (99%)
Default                                  : Yes
Forced                                   : No

Audio
ID                                       : 2
Format                                   : AC-3
Format/Info                              : Audio Coding 3
Mode extension                           : CM (complete main)
Format settings, Endianness              : Big
Codec ID                                 : A_AC3
Duration                                 : 2h 9 min
Bit rate mode                            : Constant
Bit rate                                 : 384 kb/s
Channel(s)                               : 6 channels
Channel positions                        : Front: L C R, Side: L R, LFE
Sampling rate                            : 48.0 kHz
Frame rate                               : 31.250 FPS (1536 spf)
Compression mode                         : Lossy
Stream size                              : 354 MiB (1%)
Default                                  : Yes
Forced                                   : No

Text
ID                                       : 3
Format                                   : PGS
Muxing mode                              : zlib
Codec ID                                 : S_HDMV/PGS
Codec ID/Info                            : Picture based subtitle format used on BDs/HD-DVDs
Duration                                 : 2h 0 min
Bit rate                                 : 33.0 kb/s
Count of elements                        : 4258
Stream size                              : 28.3 MiB (0%)
Default                                  : Yes
Forced                                   : No

Menu
00:00:00.000                             : en:Chapter 01
00:05:00.000                             : en:Chapter 02
00:10:00.000                             : en:Chapter 03
00:15:00.000                             : en:Chapter 04
00:20:00.000                             : en:Chapter 05
00:25:00.000                             : en:Chapter 06
00:30:00.000                             : en:Chapter 07
00:35:00.000                             : en:Chapter 08
00:40:00.000                             : en:Chapter 09
00:45:00.000                             : en:Chapter 10
00:50:00.000                             : en:Chapter 11
00:55:00.000                             : en:Chapter 12
01:00:00.000                             : en:Chapter 13
01:05:00.000                             : en:Chapter 14
01:10:00.000                             : en:Chapter 15
01:15:00.000                             : en:Chapter 16
01:20:00.000                             : en:Chapter 17
01:25:00.000                             : en:Chapter 18
01:30:00.000                             : en:Chapter 19
01:35:00.000                             : en:Chapter 20
01:40:00.000                             : en:Chapter 21
01:45:00.000                             : en:Chapter 22
01:50:00.000                             : en:Chapter 23
01:55:00.000                             : en:Chapter 24
02:00:00.000                             : en:Chapter 25
02:05:00.000                             : en:Chapter 26

 

Скриншоты:



Время раздачи: с 13:00 до 23:00
[NNMClub.to]_Now.You.See.Me.2.2016.REMUX.1080p.BluRay.AVC.DD5.1-iFT.mkv.torrent
 Торрент: Золотая раздача  Зарегистрирован
 
Примагнититься

Зарегистрируйтесь и скачайте торрент!
183 KB
 Зарегистрирован:   20 Авг 2016 00:00:37
 Размер:   36,6 GB  (
 Рейтинг:   3,8 (Голосов: 13)
 Поблагодарили:   52
 Проверка:   Оформление проверено модератором 20 Авг 2016 00:02:37
Как cкачать  ·  Как раздать  ·  Правильно оформить  ·  Поднять ратио!  
CyberMen
Стаж: 6 лет
Сообщений: 56
Ratio: 49,905
100%
russia.gif
Даешь blu-ray диск! А то чё зря проигрывателю стоять))
deymon1981
Стаж: 6 лет 4 мес.
Сообщений: 56
Ratio: 7,451
0%
Откуда: Краснодар
russia.gif
CyberMen писал(а): Перейти к сообщению
Даешь blu-ray диск! А то чё зря проигрывателю стоять))

в утиль... и уже давно...
Показать сообщения:   
Начать новую тему   Ответить на тему    Торрент-трекер NNM-Club -> Зарубежное кино -> Фильмы в оригинале (HD) Часовой пояс: GMT + 3
Страница 1 из 1