Интеллигентный торрент-трекер
canvas not supported
Нас вместе: 4 200 328

Охотники за привидениями / Ghosthunters (2016) BDRip [H.264/720p] [EN]


 
 
RSS
Начать новую тему   Ответить на тему    Торрент-трекер NNM-Club -> Зарубежное кино -> Фильмы в оригинале (HD)
Автор Сообщение
smaster67 ®
Модератор Видео
Покровитель талантов Uploader 300+
Стаж: 7 лет 6 мес.
Сообщений: 6395
Ratio: 186,933
Поблагодарили: 180298
100%
Охотники за привидениями / Ghosthunters (2016) BDRip [H.264/720p] [EN]

Производство: США
Жанр: ужасы

Режиссер: Тео Пирри
Актеры: Лиз Феннинг, Стефен Мэнли, Дэвид О’Доннелл, Франческа Санторо

Описание:
Когда в новом доме были убиты дочь и жена главного героя, он обратился к охотникам за приведениями, чтобы запечатать их души и упокоить их с миром. Однако охотники зашли слишком далеко и призраки показали всю свою враждебность, открыв настоящую зловещего тайну дома.



Продолжительность: 01:29:52
Качество видео: BDRip
Перевод: Отсутствует
Язык озвучки: Английский

Видео: AVC, 1280x720 (16:9), 5456 kbps, 23,976 fps, 0,247 bpp
Аудио: английский / DTS / 5.1 / 48 kHz / 1509 kbps / 24 bit
Код:
General
Unique ID                              Ghosthunters-720.mkv
Format                                   : Matroska
Format version                           : Version 4 / Version 2
File size                                : 4.36 GiB
Duration                                 : 1 h 29 min
Overall bit rate                         : 6 948 kb/s
Encoded date                             : UTC 2016-08-20 17:27:22
Writing application                      : mkvmerge v7.5.0 ('Glass Culture') 64bit built on Jan  4 2015 16:48:44
Writing library                          : libebml v1.3.1 + libmatroska v1.4.2

Video
ID                                       : 1
Format                                   : AVC
Format/Info                              : Advanced Video Codec
Format profile                           : High@L4.1
Format settings, CABAC                   : Yes
Format settings, ReFrames                : 5 frames
Codec ID                                 : V_MPEG4/ISO/AVC
Duration                                 : 1 h 29 min
Bit rate                                 : 5 456 kb/s
Width                                    : 1 280 pixels
Height                                   : 720 pixels
Display aspect ratio                     : 16:9
Frame rate mode                          : Constant
Frame rate                               : 23.976 (24000/1001) FPS
Color space                              : YUV
Chroma subsampling                       : 4:2:0
Bit depth                                : 8 bits
Scan type                                : Progressive
Bits/(Pixel*Frame)                       : 0.247
Stream size                              : 3.41 GiB (78%)
Title                                    : noscr-ghosthunters-720
Writing library                          : x264 core 148 r2705 3f5ed56
Encoding settings                        : cabac=1 / ref=5 / deblock=1:0:0 / analyse=0x3:0x133 / me=umh / subme=7 / psy=1 / psy_rd=1.00:0.00 / mixed_ref=1 / me_range=16 / chroma_me=1 / trellis=1 / 8x8dct=1 / cqm=0 / deadzone=21,11 / fast_pskip=0 / chroma_qp_offset=-2 / threads=18 / lookahead_threads=3 / sliced_threads=0 / nr=0 / decimate=1 / interlaced=0 / bluray_compat=0 / constrained_intra=0 / bframes=3 / b_pyramid=2 / b_adapt=2 / b_bias=0 / direct=3 / weightb=1 / open_gop=0 / weightp=2 / keyint=250 / keyint_min=23 / scenecut=40 / intra_refresh=0 / rc_lookahead=50 / rc=2pass / mbtree=1 / bitrate=5456 / ratetol=1.0 / qcomp=0.60 / qpmin=0 / qpmax=69 / qpstep=4 / cplxblur=20.0 / qblur=0.5 / ip_ratio=1.40 / aq=1:1.00
Language                                 : English
Default                                  : Yes
Forced                                   : No

Audio
ID                                       : 2
Format                                   : DTS
Format/Info                              : Digital Theater Systems
Mode                                     : 16
Format settings, Endianness              : Big
Codec ID                                 : A_DTS
Duration                                 : 1 h 29 min
Bit rate mode                            : Constant
Bit rate                                 : 1 509 kb/s
Channel(s)                               : 6 channels
Channel positions                        : Front: L C R, Side: L R, LFE
Sampling rate                            : 48.0 kHz
Frame rate                               : 93.750 FPS (512 spf)
Bit depth                                : 24 bits
Compression mode                         : Lossy
Stream size                              : 970 MiB (22%)
Title                                    : dts
Language                                 : English
Default                                  : Yes
Forced                                   : No

Menu
00:00:00.000                             : en:00:00:00.000
00:10:00.600                             : en:00:10:00.600
00:20:01.200                             : en:00:20:01.200
00:30:01.800                             : en:00:30:01.800
00:40:02.400                             : en:00:40:02.400
00:50:03.000                             : en:00:50:03.000
01:00:03.600                             : en:01:00:03.600
01:10:04.200                             : en:01:10:04.200
01:20:04.800                             : en:01:20:04.800

Скриншоты:



Время раздачи: с 13:00 до 23:00
[NNMClub.to]_Ghosthunters-720.mkv.torrent
 Торрент: Серебряная раздча  Зарегистрирован
 
Примагнититься
Free Leech
Зарегистрируйтесь и скачайте торрент!
22 KB
 Зарегистрирован:   21 Авг 2016 13:56:09
 Размер:   4,36 GB  (
 Рейтинг:   3,6 (Голосов: 10)
 Поблагодарили:   55
 Проверка:   Оформление проверено модератором 21 Авг 2016 13:56:37
Как cкачать  ·  Как раздать  ·  Правильно оформить  ·  Поднять ратио!  
VAshdd
Стаж: 4 года
Сообщений: 493
Ratio: 10,828
22.51%
Наследие Азилиума?
guf_rip666
Стаж: 4 года 8 мес.
Сообщений: 11
Ratio: 2,681
1.32%
VAshdd писал(а): Перейти к сообщению
Наследие Азилиума?

Круче, это сами Асайлум.
saint
Стаж: 6 лет 9 мес.
Сообщений: 45
Ratio: 4,685
0.26%
Кстати вполне возможно эта поделка лучше своего более раскрученного тезки с четырьмя тетками. Отпишитесь по объективу кто посмотрит.
shashock
Стаж: 4 мес. 8 дней
Сообщений: 5
Ratio: 0,005
64.29%
когда перевод будет?
Показать сообщения:   
Начать новую тему   Ответить на тему    Торрент-трекер NNM-Club -> Зарубежное кино -> Фильмы в оригинале (HD) Часовой пояс: GMT + 3
Страница 1 из 1