Интеллигентный торрент-трекер
canvas not supported
Нас вместе: 4 312 473

Соседи. На тропе войны 2 / Neighbors 2: Sorority Rising (2016) BDRip [H.264/1080p] [EN]


 
 
RSS
Начать новую тему   Ответить на тему    Торрент-трекер NNM-Club -> Зарубежное кино -> Фильмы в оригинале (HD)
Автор Сообщение
smaster67 ®
Модератор Видео
Покровитель талантов Uploader 300+
Стаж: 7 лет 8 мес.
Сообщений: 6594
Ratio: 193,201
Поблагодарили: 190258
100%
Соседи. На тропе войны 2 / Neighbors 2: Sorority Rising (2016) BDRip [H.264/1080p] [EN]

Производство: США
Жанр: комедия

Режиссер: Николас Столлер
Актеры: Сет Роген, Зак Эфрон, Роуз Бирн, Хлоя Грейс Морец, Айк Баринхолц, Кирси Клемонс, Дэйв Франко, Джеррод Кармайкл, Кристофер Минц-Плассе, Бини Фелдштейн, Клара Мамет, Аквафина

Описание:
На этот раз в дом по соседству с Маком и Келли въезжает университетский женский клуб. Чтобы разобраться с новыми соседями, которые не дают им покоя, Мак и Келли решают обратиться за помощью к их бывшему врагу - Тедди Сандерсу.



Продолжительность: 01:32:23
Качество видео: BDRip
Перевод: Отсутствует
Язык озвучки: Английский

Видео: AVC, 1920x800 (2.40:1), 8651 kbps, 23,976 fps, 0,235 bpp
Аудио: английский / DTS / 5.1 / 48 kHz / 1509 kbps / 24 bit
Код:
General
Unique ID                           Neighbors.2.Sorority.Rising.2016.1080p.mkv
Format                                   : Matroska
Format version                           : Version 4 / Version 2
File size                                : 6.56 GiB
Duration                                 : 1 h 32 min
Overall bit rate                         : 10.2 Mb/s
Encoded date                             : UTC 2016-08-22 11:02:36
Writing application                      : mkvmerge v8.3.0 ('Over the Horizon') 64bit
Writing library                          : libebml v1.3.1 + libmatroska v1.4.2

Video
ID                                       : 1
Format                                   : AVC
Format/Info                              : Advanced Video Codec
Format profile                           : High@L4.1
Format settings, CABAC                   : Yes
Format settings, ReFrames                : 5 frames
Codec ID                                 : V_MPEG4/ISO/AVC
Duration                                 : 1 h 32 min
Bit rate                                 : 8 651 kb/s
Width                                    : 1 920 pixels
Height                                   : 800 pixels
Display aspect ratio                     : 2.40:1
Frame rate mode                          : Constant
Frame rate                               : 23.976 FPS
Color space                              : YUV
Chroma subsampling                       : 4:2:0
Bit depth                                : 8 bits
Scan type                                : Progressive
Bits/(Pixel*Frame)                       : 0.235
Stream size                              : 5.58 GiB (85%)
Writing library                          : x264 core 148 r2692 64f4e24
Encoding settings                        : cabac=1 / ref=5 / deblock=1:0:0 / analyse=0x3:0x133 / me=umh / subme=7 / psy=1 / psy_rd=1.00:0.00 / mixed_ref=1 / me_range=16 / chroma_me=1 / trellis=1 / 8x8dct=1 / cqm=0 / deadzone=21,11 / fast_pskip=0 / chroma_qp_offset=-2 / threads=25 / lookahead_threads=4 / sliced_threads=0 / nr=0 / decimate=1 / interlaced=0 / bluray_compat=0 / constrained_intra=0 / bframes=3 / b_pyramid=2 / b_adapt=1 / b_bias=0 / direct=1 / weightb=1 / open_gop=0 / weightp=2 / keyint=250 / keyint_min=23 / scenecut=40 / intra_refresh=0 / rc_lookahead=40 / rc=2pass / mbtree=1 / bitrate=8651 / ratetol=1.0 / qcomp=0.60 / qpmin=0 / qpmax=69 / qpstep=4 / cplxblur=20.0 / qblur=0.5 / ip_ratio=1.40 / aq=1:1.00
Language                                 : English
Default                                  : Yes
Forced                                   : No

Audio
ID                                       : 2
Format                                   : DTS
Format/Info                              : Digital Theater Systems
Mode                                     : 16
Format settings, Endianness              : Big
Codec ID                                 : A_DTS
Duration                                 : 1 h 32 min
Bit rate mode                            : Constant
Bit rate                                 : 1 509 kb/s
Channel(s)                               : 6 channels
Channel positions                        : Front: L C R, Side: L R, LFE
Sampling rate                            : 48.0 kHz
Frame rate                               : 93.750 FPS (512 spf)
Bit depth                                : 24 bits
Compression mode                         : Lossy
Stream size                              : 997 MiB (15%)
Language                                 : English
Default                                  : Yes
Forced                                   : No

Menu
00:00:00.000                             : en:00:00:00.000
00:06:30.890                             : en:00:06:30.890
00:09:50.381                             : en:00:09:50.381
00:13:05.535                             : en:00:13:05.535
00:17:37.890                             : en:00:17:37.890
00:22:13.082                             : en:00:22:13.082
00:27:34.278                             : en:00:27:34.278
00:31:54.454                             : en:00:31:54.454
00:38:36.022                             : en:00:38:36.022
00:44:43.222                             : en:00:44:43.222
00:50:42.039                             : en:00:50:42.039
00:54:32.811                             : en:00:54:32.811
01:00:54.609                             : en:01:00:54.609
01:04:14.684                             : en:01:04:14.684
01:08:26.644                             : en:01:08:26.644
01:12:54.370                             : en:01:12:54.370
01:16:34.423                             : en:01:16:34.423
01:20:45.215                             : en:01:20:45.215
01:23:18.994                             : en:01:23:18.994
01:26:03.700                             : en:01:26:03.700

Скриншоты:



Время раздачи: с 13:00 до 23:00
[NNMClub.to]_Neighbors.2.Sorority.Rising.2016.1080p.mkv.torrent
 Торрент: Золотая раздача  Зарегистрирован
 
Примагнититься
Free Leech
Зарегистрируйтесь и скачайте торрент!
33 KB
 Зарегистрирован:   22 Авг 2016 15:05:22
 Размер:   6,56 GB  (
 Рейтинг:    (Голосов: 9)
 Поблагодарили:   54
 Проверка:   Оформление проверено модератором 22 Авг 2016 15:05:42
Как cкачать  ·  Как раздать  ·  Правильно оформить  ·  Поднять ратио!  
AHTOHbl4
Стаж: 7 лет 5 мес.
Сообщений: 378
Ratio: 54,163
100%
ussr.gif
Кино просто лютый бред.
Один смешной гег на весь фильм, когда толстая из машины выпала.
Как будто высер енджоймувис.
Евгена на них нет! =)
Показать сообщения:   
Начать новую тему   Ответить на тему    Торрент-трекер NNM-Club -> Зарубежное кино -> Фильмы в оригинале (HD) Часовой пояс: GMT + 3
Страница 1 из 1