Интеллигентный торрент-трекер
canvas not supported
Нас вместе: 4 255 629

Такса / Wiener-Dog (2016) BDRemux [H.264/1080p] [EN]


 
 
RSS
Начать новую тему   Ответить на тему    Торрент-трекер NNM-Club -> Зарубежное кино -> Фильмы в оригинале (HD)
Автор Сообщение
smaster67 ®
Модератор Видео
Покровитель талантов Uploader 300+
Стаж: 7 лет 7 мес.
Сообщений: 6493
Ratio: 188,702
Поблагодарили: 185201
100%
Такса / Wiener-Dog (2016) BDRemux [H.264/1080p] [EN]

Производство: США
Жанр: комедия

Режиссер: Тодд Солондз
Актеры: Дэнни ДеВито, Заша Мэмет, Китон Найджел Кук, Трэйси Леттс, Жюли Дельпи, Грета Гервиг, Киран Калкин, Ригоберто Гарсиа, Аральдо Альварес, Дэйн Викторианио, Коннор Лонг, Бриджет Браун

Описание:
Трогательная, вместе с тем наполненная сарказмом история путешествия таксы от хозяина к хозяину. Четыре человеческих судьбы связаны одним питомцем: собаке приходится быть послушной няней, психологом, а очередной хозяин вообще крадет таксу и пускается с ней в авантюру. В итоге, невинный пес становится свидетелем полного спектра человеческих переживаний. Удастся ли таксе выжить в этом круговороте событий?



Продолжительность: 01:28:03
Качество видео: BDRemux
Перевод: Отсутствует
Язык озвучки: Английский

Видео: AVC, 1920x1080 (16:9), 33500 kbps, 23,976 fps, 0,674 bpp
Аудио: английский / AC3 / 5 / 48 kHz / 448 kbps /
Код:
General
Unique ID
Complete name                           Wiener-Dog.2016.BluRay.1080p.DD.5.0.AVC.REMUX-FraMeSToR\Wiener-Dog.2016.BluRay.1080p.DD.5.0.AVC.REMUX-FraMeSToR.mkv
Format                                   : Matroska
Format version                           : Version 4 / Version 2
File size                                : 20.8 GiB
Duration                                 : 1 h 28 min
Overall bit rate mode                    : Variable
Overall bit rate                         : 33.8 Mb/s
Movie name                               : Wiener-Dog
Encoded date                             : UTC 2016-08-23 20:39:46
Writing application                      : mkvmerge v9.4.0 ('Knurl') 64bit
Writing library                          : libebml v1.3.4 + libmatroska v1.4.5

Video
ID                                       : 1
Format                                   : AVC
Format/Info                              : Advanced Video Codec
Format profile                           : High@L4.1
Format settings, CABAC                   : Yes
Format settings, ReFrames                : 3 frames
Codec ID                                 : V_MPEG4/ISO/AVC
Duration                                 : 1 h 28 min
Bit rate mode                            : Variable
Bit rate                                 : 33.5 Mb/s
Maximum bit rate                         : 40.0 Mb/s
Width                                    : 1 920 pixels
Height                                   : 1 080 pixels
Display aspect ratio                     : 16:9
Frame rate mode                          : Constant
Frame rate                               : 23.976 (24000/1001) FPS
Color space                              : YUV
Chroma subsampling                       : 4:2:0
Bit depth                                : 8 bits
Scan type                                : Progressive
Bits/(Pixel*Frame)                       : 0.674
Stream size                              : 20.5 GiB (99%)
Writing library                          : x264 core 138
Encoding settings                        : cabac=1 / ref=3 / deblock=1:-1:-1 / analyse=0x3:0x113 / me=hex / subme=7 / psy=1 / psy_rd=1.00:0.15 / mixed_ref=1 / me_range=16 / chroma_me=1 / trellis=1 / 8x8dct=1 / cqm=0 / deadzone=21,11 / fast_pskip=1 / chroma_qp_offset=-3 / threads=6 / lookahead_threads=1 / sliced_threads=0 / slices=4 / nr=0 / decimate=1 / interlaced=0 / bluray_compat=1 / constrained_intra=0 / bframes=3 / b_pyramid=1 / b_adapt=1 / b_bias=0 / direct=1 / weightb=1 / open_gop=0 / weightp=0 / keyint=24 / keyint_min=1 / scenecut=40 / intra_refresh=0 / rc_lookahead=24 / rc=2pass / mbtree=1 / bitrate=33500 / ratetol=1.0 / qcomp=0.60 / qpmin=1 / qpmax=69 / qpstep=4 / cplxblur=20.0 / qblur=0.5 / vbv_maxrate=40000 / vbv_bufsize=24000 / nal_hrd=vbr / ip_ratio=1.40 / aq=1:1.00
Default                                  : Yes
Forced                                   : No
Color range                              : Limited
Color primaries                          : BT.709
Transfer characteristics                 : BT.709
Matrix coefficients                      : BT.709

Audio
ID                                       : 2
Format                                   : AC-3
Format/Info                              : Audio Coding 3
Mode extension                           : CM (complete main)
Format settings, Endianness              : Big
Codec ID                                 : A_AC3
Duration                                 : 1 h 28 min
Bit rate mode                            : Constant
Bit rate                                 : 448 kb/s
Channel(s)                               : 5 channels
Channel positions                        : Front: L C R, Side: L R
Sampling rate                            : 48.0 kHz
Frame rate                               : 31.250 FPS (1536 spf)
Compression mode                         : Lossy
Stream size                              : 282 MiB (1%)
Title                                    : AC3 5.1
Language                                 : English
Default                                  : Yes
Forced                                   : No

Menu
00:00:00.000                             : en:Chapter 1
00:05:00.300                             : en:Chapter 2
00:10:00.600                             : en:Chapter 3
00:15:00.900                             : en:Chapter 4
00:20:01.200                             : en:Chapter 5
00:25:01.500                             : en:Chapter 6
00:30:01.800                             : en:Chapter 7
00:35:02.100                             : en:Chapter 8
00:40:02.400                             : en:Chapter 9
00:45:02.700                             : en:Chapter 10
00:50:03.000                             : en:Chapter 11
00:55:03.300                             : en:Chapter 12
01:00:03.600                             : en:Chapter 13
01:05:03.900                             : en:Chapter 14
01:10:04.200                             : en:Chapter 15
01:15:04.500                             : en:Chapter 16
01:20:04.800                             : en:Chapter 17
01:24:42.327                             : en:Chapter 18

Скриншоты:



Время раздачи: с 13:00 до 23:00
[NNMClub.to]_Wiener-Dog.2016.BluRay.1080p.DD.5.0.AVC.REMUX-FraMeSToR.mkv.torrent
 Торрент: Золотая раздача  Зарегистрирован
 
Примагнититься

Зарегистрируйтесь и скачайте торрент!
104 KB
 Зарегистрирован:   24 Авг 2016 14:20:54
 Размер:   20,8 GB  (
 Рейтинг:   4,9 (Голосов: 10)
 Поблагодарили:   52
 Проверка:   Оформление проверено модератором 24 Авг 2016 14:21:51
Как cкачать  ·  Как раздать  ·  Правильно оформить  ·  Поднять ратио!  
Показать сообщения:   
Начать новую тему   Ответить на тему    Торрент-трекер NNM-Club -> Зарубежное кино -> Фильмы в оригинале (HD) Часовой пояс: GMT + 3
Страница 1 из 1