Интеллигентный торрент-трекер
canvas not supported
Нас вместе: 4 309 134

Зло, что творят люди / The Evil That Men Do (2015) BDRemux [H.264/1080p] [EN / EN, Sp, Ca Sub]


 
 
RSS
Начать новую тему   Ответить на тему    Торрент-трекер NNM-Club -> Зарубежное кино -> Фильмы в оригинале (HD)
Автор Сообщение
smaster67 ®
Модератор Видео
Покровитель талантов Uploader 300+
Стаж: 7 лет 8 мес.
Сообщений: 6591
Ratio: 192,916
Поблагодарили: 190142
100%
Зло, что творят люди / The Evil That Men Do (2015) BDRemux [H.264/1080p] [EN / EN, Sp, Ca Sub]

Производство: Испания
Жанр: триллер

Режиссер: Рамон Терменс
Актеры: Даниэль Фаральдо, Эндрю Тарбет, Серхио Перис-Менчета, Приссила Дельгадо, Николь Колларс, Хосе Сефами, Рауль Эспиноза

Описание:
Двум убийцам, работающим на мексиканский наркокартель, поручают стеречь 10-летнюю девочку, являющуюся дочерью босса конкурирующего картеля, которую похитил сын их босса.



Продолжительность: 01:33:05
Качество видео: BDRemux
Перевод: Отсутствует
Язык озвучки: Английский
Язык субтитров: английский, испанский, каталанский
Вид субтитров: вшитые, отключаемые

Видео: AVC, 1920x1080 (16:9), 26999 kbps, 24 fps, 0,543 bpp
Аудио №1: английский / Atmos / TrueHD / 7.1 / 3931 kbps /
Аудио №2: английский / AC3 / 5.1 / 48 kHz / 640 kbps /
Код:
General
Unique ID
Complete name                            : The.Evil.That.Men.Do.2015.BluRay.1080p.TrueHD.Atmos.7.1.AVC.REMUX-FraMeSToR\The.Evil.That.Men.Do.2015.BluRay.1080p.TrueHD.Atmos.7.1.AVC.REMUX-FraMeSToR.mkv
Format                                   : Matroska
Format version                           : Version 4 / Version 2
File size                                : 20.2 GiB
Duration                                 : 1 h 33 min
Overall bit rate mode                    : Variable
Overall bit rate                         : 31.0 Mb/s
Movie name                               : The Evil That Men Do
Encoded date                             : UTC 2016-08-23 22:11:05
Writing application                      : mkvmerge v9.4.0 ('Knurl') 64bit
Writing library                          : libebml v1.3.4 + libmatroska v1.4.5

Video
ID                                       : 1
Format                                   : AVC
Format/Info                              : Advanced Video Codec
Format profile                           : High@L4.1
Format settings, CABAC                   : Yes
Format settings, ReFrames                : 4 frames
Codec ID                                 : V_MPEG4/ISO/AVC
Duration                                 : 1 h 33 min
Bit rate mode                            : Constant
Bit rate                                 : 27.0 Mb/s
Width                                    : 1 920 pixels
Height                                   : 1 080 pixels
Display aspect ratio                     : 16:9
Frame rate mode                          : Constant
Frame rate                               : 24.000 FPS
Standard                                 : NTSC
Color space                              : YUV
Chroma subsampling                       : 4:2:0
Bit depth                                : 8 bits
Scan type                                : Progressive
Bits/(Pixel*Frame)                       : 0.543
Stream size                              : 17.1 GiB (85%)
Default                                  : Yes
Forced                                   : No
Color range                              : Limited
Color primaries                          : BT.709
Transfer characteristics                 : BT.709
Matrix coefficients                      : BT.709

Audio #1
ID                                       : 2
Format                                   : Atmos / TrueHD
Codec ID                                 : A_TRUEHD
Duration                                 : 1 h 33 min
Bit rate mode                            : Variable
Bit rate                                 : 3 931 kb/s
Maximum bit rate                         : 7 878 kb/s
Channel(s)                               : Object Based / 8 channels
Channel positions                        : Object Based / Front: L C R, Side: L R, Back: L R, LFE
Sampling rate                            :  / 48.0 kHz
Frame rate                               : 1 200.000 FPS (40 spf)
Compression mode                         : Lossless
Stream size                              : 2.55 GiB (13%)
Title                                    : TrueHD Atmos 7.1
Language                                 : English
Default                                  : Yes
Forced                                   : No

Audio #2
ID                                       : 3
Format                                   : AC-3
Format/Info                              : Audio Coding 3
Mode extension                           : CM (complete main)
Format settings, Endianness              : Big
Codec ID                                 : A_AC3
Duration                                 : 1 h 33 min
Bit rate mode                            : Constant
Bit rate                                 : 640 kb/s
Channel(s)                               : 6 channels
Channel positions                        : Front: L C R, Side: L R, LFE
Sampling rate                            : 48.0 kHz
Frame rate                               : 31.250 FPS (1536 spf)
Compression mode                         : Lossy
Stream size                              : 426 MiB (2%)
Title                                    : AC3 5.1-EX
Language                                 : English
Default                                  : No
Forced                                   : No

Text #1
ID                                       : 4
Format                                   : PGS
Codec ID                                 : S_HDMV/PGS
Codec ID/Info                            : Picture based subtitle format used on BDs/HD-DVDs
Duration                                 : 1 h 18 min
Bit rate                                 : 5 700 b/s
Count of elements                        : 382
Stream size                              : 3.20 MiB (0%)
Title                                    : English (Forced only)
Language                                 : English
Default                                  : Yes
Forced                                   : No

Text #2
ID                                       : 5
Format                                   : PGS
Codec ID                                 : S_HDMV/PGS
Codec ID/Info                            : Picture based subtitle format used on BDs/HD-DVDs
Duration                                 : 1 h 26 min
Bit rate                                 : 18.8 kb/s
Count of elements                        : 1608
Stream size                              : 11.7 MiB (0%)
Title                                    : Spanish
Language                                 : Spanish
Default                                  : No
Forced                                   : No

Text #3
ID                                       : 6
Format                                   : PGS
Codec ID                                 : S_HDMV/PGS
Codec ID/Info                            : Picture based subtitle format used on BDs/HD-DVDs
Duration                                 : 1 h 26 min
Bit rate                                 : 18.0 kb/s
Count of elements                        : 1610
Stream size                              : 11.2 MiB (0%)
Title                                    : Catalan
Language                                 : Catalan
Default                                  : No
Forced                                   : No

Menu
00:00:00.000                             : en:Chapter 1
00:08:04.791                             : en:Chapter 2
00:17:14.500                             : en:Chapter 3
00:28:26.208                             : en:Chapter 4
00:43:40.083                             : en:Chapter 5
00:57:59.791                             : en:Chapter 6
01:08:15.250                             : en:Chapter 7
01:25:09.416                             : en:Chapter 8

Скриншоты:



Время раздачи: с 13:00 до 23:00
[NNMClub.to]_The.Evil.That.Men.Do.2015.BluRay.1080p.TrueHD.Atmos.7.1.AVC.REMUX-FraMeSToR.mkv.torrent
 Торрент: Золотая раздача  Зарегистрирован
 
Примагнититься
Free Leech
Зарегистрируйтесь и скачайте торрент!
101 KB
 Зарегистрирован:   24 Авг 2016 16:27:54
 Размер:   20,2 GB  (
 Рейтинг:    (Голосов: 7)
 Поблагодарили:   34
 Проверка:   Оформление проверено модератором 24 Авг 2016 16:28:41
Как cкачать  ·  Как раздать  ·  Правильно оформить  ·  Поднять ратио!  
encelad08
Стаж: 4 года 8 мес.
Сообщений: 121
Ratio: 0,676
96.28%
ussr.gif
Кхм... жаль, не понимаю по бусурмански.
Kotial
Стаж: 5 лет 1 мес.
Сообщений: 21
Ratio: 5,388
42.33%
5,6 рейтинг
Pavel8552
Стаж: 1 год 1 мес.
Сообщений: 138
Ratio: 0,879
95.4%
encelad08 писал(а): Перейти к сообщению
Кхм... жаль, не понимаю по бусурмански.

Так ты ещё и сидишь в "бусурманоском" инете,за их компом,пользуешься их зубной щёткой и всей техникой,что у тебя есть )
HDnet
Стаж: 5 лет 8 мес.
Сообщений: 29
Ratio: 74,968
Поблагодарили: 825
100%
С русской дорожкой будет?
alien00
Стаж: 5 лет 9 мес.
Сообщений: 283
Ratio: 3,778
14.19%
russia.gif
Странно, НО в 1984 вышел фильм "The Evil That Men Do"... Другой фильм, совсем с другим сюжетом.. Но названия 1:1
Показать сообщения:   
Начать новую тему   Ответить на тему    Торрент-трекер NNM-Club -> Зарубежное кино -> Фильмы в оригинале (HD) Часовой пояс: GMT + 3
Страница 1 из 1