Интеллигентный торрент-трекер
canvas not supported
Нас вместе: 4 348 205

Равные / Equals (2015) BDRip [H.264/1080p] [EN]


 
 
RSS
Начать новую тему   Ответить на тему    Торрент-трекер NNM-Club -> Зарубежное кино -> Фильмы в оригинале (HD)
Автор Сообщение
smaster67 ®
Модератор Видео
Покровитель талантов Uploader 300+
Стаж: 7 лет 10 мес.
Сообщений: 6629
Ratio: 198,774
Поблагодарили: 192394
100%
Равные / Equals (2015) BDRip [H.264/1080p] [EN]

Производство: США
Жанр: фантастика, драма, мелодрама

Режиссер: Дрейк Доримус
Актеры: Николас Холт, Кристен Стюарт, Гай Пирс, Джеки Уивер, Тоби Хасс, Дэвид Селби, Кейт Лин Шейл, Ребекка Хэзлвуд, Тео Ю, Аврора Периньо, Скотт Лоуренс, Бел Паули

Описание:
Фильм «Равные» рассказывает историю Сайласа, который живет в будущем, в обществе, названном «Коллектив». Жители этого современного мира - новое поколение людей, называемое «Равными». Равные - это мирные, спокойные, вежливые и справедливые люди, и жизнь в «Коллективе» идеальна. В нем не существует ни бедности, ни жадности, ни насилия, ни эмоций... Но над обществом нависает новая угроза: заболевание «SOS» или «Синдром Общественной Сознательности», жертвы которого подвергаются всему, чего, как они думали, избежали: депрессия, уязвимость, страх, любовь. Если правительство обнаружит человека, зараженного «SOS», его сразу же заберут в Нору, после чего этого человека уже никто и никогда не увидит.



Продолжительность: 01:41:51
Качество видео: BDRip
Перевод: Отсутствует
Язык озвучки: Английский

Видео: AVC, 1920x1080 (16:9), 16635 kbps, 25 fps, 0,321 bpp
Аудио: английский / DTS / 5.1 / 48 kHz / 1509 kbps / 24 bit
Код:
General
Unique ID
Complete name                            Equals.2016.1080p.Bluray.X264-EVO\Equals.2016.1080p.Bluray.X264-EVO.mkv
Format                                   : Matroska
Format version                           : Version 4 / Version 2
File size                                : 13.2 GiB
Duration                                 : 1 h 41 min
Overall bit rate                         : 18.5 Mb/s
Movie name                               : EVO
Encoded date                             : UTC 2016-08-24 20:53:15
Writing application                      : mkvmerge v6.7.0 ('Back to the Ground') 64bit built on Jan  8 2014 15:10:52
Writing library                          : libebml v1.3.0 + libmatroska v1.4.1

Video
ID                                       : 2
Format                                   : AVC
Format/Info                              : Advanced Video Codec
Format profile                           : High@L4.1
Format settings, CABAC                   : Yes
Format settings, ReFrames                : 4 frames
Codec ID                                 : V_MPEG4/ISO/AVC
Duration                                 : 1 h 41 min
Bit rate                                 : 16.6 Mb/s
Width                                    : 1 920 pixels
Height                                   : 1 080 pixels
Display aspect ratio                     : 16:9
Frame rate mode                          : Constant
Frame rate                               : 25.000 FPS
Color space                              : YUV
Chroma subsampling                       : 4:2:0
Bit depth                                : 8 bits
Scan type                                : Progressive
Bits/(Pixel*Frame)                       : 0.321
Stream size                              : 11.8 GiB (90%)
Writing library                          : x264 core 148 r2705 3f5ed56
Encoding settings                        : cabac=1 / ref=4 / deblock=1:-3:-3 / analyse=0x3:0x133 / me=umh / subme=11 / psy=1 / psy_rd=1.00:0.00 / mixed_ref=1 / me_range=48 / chroma_me=1 / trellis=2 / 8x8dct=1 / cqm=0 / deadzone=21,11 / fast_pskip=0 / chroma_qp_offset=-2 / threads=18 / lookahead_threads=4 / sliced_threads=0 / nr=0 / decimate=1 / interlaced=0 / bluray_compat=0 / constrained_intra=0 / bframes=12 / b_pyramid=2 / b_adapt=2 / b_bias=0 / direct=1 / weightb=1 / open_gop=0 / weightp=2 / keyint=240 / keyint_min=24 / scenecut=40 / intra_refresh=0 / rc_lookahead=60 / rc=crf / mbtree=0 / crf=17.3 / qcomp=0.60 / qpmin=0 / qpmax=69 / qpstep=4 / vbv_maxrate=50000 / vbv_bufsize=62500 / crf_max=0.0 / nal_hrd=none / filler=0 / ip_ratio=1.35 / pb_ratio=1.25 / aq=1:0.80
Language                                 : English
Default                                  : Yes
Forced                                   : No

Audio
ID                                       : 1
Format                                   : DTS
Format/Info                              : Digital Theater Systems
Mode                                     : 16
Format settings, Endianness              : Big
Codec ID                                 : A_DTS
Duration                                 : 1 h 41 min
Bit rate mode                            : Constant
Bit rate                                 : 1 509 kb/s
Channel(s)                               : 6 channels
Channel positions                        : Front: L C R, Side: L R, LFE
Sampling rate                            : 48.0 kHz
Frame rate                               : 93.750 FPS (512 spf)
Bit depth                                : 24 bits
Compression mode                         : Lossy
Stream size                              : 1.07 GiB (8%)
Language                                 : English
Default                                  : Yes
Forced                                   : No

Скриншоты:



Время раздачи: с 13:00 до 23:00
[NNMClub.to]_Equals.2016.1080p.Bluray.X264-EVO.mkv.torrent
 Торрент: Золотая раздача  Зарегистрирован
 
Примагнититься
Free Leech
Зарегистрируйтесь и скачайте торрент!
66,1 KB
 Зарегистрирован:   25 Авг 2016 08:07:19
 Размер:   13,2 GB  (
 Рейтинг:    (Голосов: 7)
 Поблагодарили:   40
 Проверка:   Оформление проверено модератором 25 Авг 2016 08:21:03
Как cкачать  ·  Как раздать  ·  Правильно оформить  ·  Поднять ратио!  
Загрузка...
xploser
Стаж: 7 лет 7 мес.
Сообщений: 505
Ratio: 12,208
Поблагодарили: 165
3.44%
фильм так себе , в общем по этой теме ничего лучше эквилибриума нету .
но в целом посмотреть можно .
я правда в русской озвучке смотрел , но думаю что в оригинальной смысл фильма не шибко меняется .
alien00
Стаж: 5 лет 11 мес.
Сообщений: 294
Ratio: 3,747
14.02%
russia.gif
Сказать что фильм полная $#йня - это мягко. Рейтинг "6" завышен раза в 3.
Унылое видео, игры актёров нет совершенно, диалоги ещё хуже.

В целом - идея не новая, и есть фильмы на эту тему в разы мощнее. Да, тот же Эквилибриум - хотя тоже не лучший, но по сравнению с этими соплями, просто шедевр кинематографа)

P.S. За качество картинки конечно спасибо.
Показать сообщения:   
Начать новую тему   Ответить на тему    Торрент-трекер NNM-Club -> Зарубежное кино -> Фильмы в оригинале (HD) Часовой пояс: GMT + 3
Страница 1 из 1