Интеллигентный торрент-трекер
canvas not supported
Нас вместе: 4 332 243

Море деревьев / The Sea of Trees (2015) BDRemux [H.264/1080p] [EN / EN Sub]


 
 
RSS
Начать новую тему   Ответить на тему    Торрент-трекер NNM-Club -> Зарубежное кино -> Фильмы в оригинале (HD)
Автор Сообщение
smaster67 ®
Модератор Видео
Покровитель талантов Uploader 300+
Стаж: 8 лет
Сообщений: 6666
Ratio: 202,469
Поблагодарили: 193951
100%
Море деревьев / The Sea of Trees (2015) BDRemux [H.264/1080p] [EN / EN Sub]

Производство: США
Жанр: драма

Режиссер: Гас Ван Сент
Актеры: Мэттью МакКонахи, Наоми Уоттс, Кэтрин Аселтон, Джордан Джаварис, Кен Ватанабе, Джеймс Саито, Оуэн Бурк, Марк Бузенски, Сьюзэн ДеБерардинис, Маккензи Хоу, Анна Фридман

Описание:
Американец-самоубийца знакомится с японцем, потерявшимся в лесу рядом с горой Фудзи, и вместе они пытаются отыскать дорогу.



Продолжительность: 01:46:05
Качество видео: BDRemux
Перевод: Отсутствует
Язык озвучки: Английский
Язык субтитров: Английский
Вид субтитров: вшитые

Видео: AVC, 1920x1080 (16:9), 18491 kbps, 25 fps, 0,357 bpp
Аудио: DTS-HD / 5.1 / 48 kHz / 1920 kbps / 16 bit (Core: 5.1 / 48 kHz / 1509 kbps / 16 bit)
Код: выделить все
General
Unique ID                     The.Sea.Of.Trees.2015.REMUX.1080p.BluRay.AVC.DTS-HD.MA5.1-iFT\The.Sea.Of.Trees.2015.REMUX.1080p.BluRay.AVC.DTS-HD.MA5.1-iFT.mkv
Format                                   : Matroska
Format version                           : Version 4 / Version 2
File size                                : 15.2 GiB
Duration                                 : 1 h 46 min
Overall bit rate mode                    : Variable
Overall bit rate                         : 20.4 Mb/s
Encoded date                             : UTC 2016-08-27 05:39:15
Writing application                      : mkvmerge v8.9.0 ('Father Daughter') 64bit
Writing library                          : libebml v1.3.3 + libmatroska v1.4.4

Video
ID                                       : 1
Format                                   : AVC
Format/Info                              : Advanced Video Codec
Format profile                           : High@L4.1
Format settings, CABAC                   : Yes
Format settings, ReFrames                : 2 frames
Format settings, GOP                     : M=1, N=5
Codec ID                                 : V_MPEG4/ISO/AVC
Duration                                 : 1 h 46 min
Bit rate mode                            : Variable
Bit rate                                 : 18.5 Mb/s
Maximum bit rate                         : 34.2 Mb/s
Width                                    : 1 920 pixels
Height                                   : 1 080 pixels
Display aspect ratio                     : 16:9
Frame rate mode                          : Constant
Frame rate                               : 25.000 FPS
Color space                              : YUV
Chroma subsampling                       : 4:2:0
Bit depth                                : 8 bits
Scan type                                : MBAFF
Scan type, store method                  : Interleaved fields
Scan order                               : Top Field First
Bits/(Pixel*Frame)                       : 0.357
Stream size                              : 13.7 GiB (90%)
Default                                  : Yes
Forced                                   : No

Audio
ID                                       : 2
Format                                   : DTS
Format/Info                              : Digital Theater Systems
Format profile                           : MA / Core
Mode                                     : 16
Format settings, Endianness              : Big
Codec ID                                 : A_DTS
Duration                                 : 1 h 46 min
Bit rate mode                            : Variable / Constant
Bit rate                                 : 1 920 kb/s / 1 509 kb/s
Channel(s)                               : 6 channels
Channel positions                        : Front: L C R, Side: L R, LFE
Sampling rate                            : 48.0 kHz
Frame rate                               : 93.750 FPS (512 spf)
Bit depth                                : 16 bits
Compression mode                         : Lossless / Lossy
Stream size                              : 1.44 GiB (10%)
Default                                  : Yes
Forced                                   : No

Text
ID                                       : 3
Format                                   : PGS
Muxing mode                              : zlib
Codec ID                                 : S_HDMV/PGS
Codec ID/Info                            : Picture based subtitle format used on BDs/HD-DVDs
Duration                                 : 7 min
Bit rate                                 : 4 582 b/s
Count of elements                        : 30
Stream size                              : 257 KiB (0%)
Default                                  : Yes
Forced                                   : No

Menu
00:00:00.000                             : en:Chapter 01
00:12:58.720                             : en:Chapter 02
00:26:16.360                             : en:Chapter 03
00:43:34.960                             : en:Chapter 04
00:53:24.400                             : en:Chapter 05
01:08:59.880                             : en:Chapter 06
01:20:34.600                             : en:Chapter 07
01:32:03.520                             : en:Chapter 08
01:46:04.560                             : en:Chapter 09

Скриншоты:



Время раздачи: с 13:00 до 23:00
[NNMClub.to]_The.Sea.Of.Trees.2015.REMUX.1080p.BluRay.AVC.DTS-HD.MA5.1-iFT.mkv.torrent
 Торрент: Платиновая раздача  Зарегистрирован
 
Примагнититься

Скачать
 Зарегистрирован:   28 Авг 2016 00:48:24
 Размер:   15,2 GB  (
 Рейтинг:   4,6 (Голосов: 12)
 Поблагодарили:   83
 Проверка:   Оформление проверено модератором 28 Авг 2016 00:49:05
Как cкачать  ·  Как раздать  ·  Правильно оформить  ·  Поднять ратио!  
ruslanrus
Стаж: 8 лет 3 мес.
Сообщений: 54
Ratio: 36,752
10.01%
russia.gif
Народ не уходите с раздачи
miller426
Стаж: 3 года 10 мес.
Сообщений: 3
Ratio: 0,826
1.14%
Неужели я дождался, думал уже не будут его на всеобщее обозрение выкладывать) :шок: Мне нужен фаст перевод!
DKurnikov
Стаж: 4 года 6 мес.
Сообщений: 109
Ratio: 4,706
9.59%
Хотя бы субтитры! ПОЖАЛУЙСТА(

_________________
•MBP 2014• i5 2.6 — 8Gb — intel iris 1536MB • 10.10.2 •
gus_ak
Стаж: 10 лет 1 мес.
Сообщений: 27
Ratio: 4,51
0.56%
russia.gif
что-то рейтинг не очень. стоит смотреть?
timkcikal
Стаж: 4 года 3 мес.
Сообщений: 11
Ratio: 2,855
Поблагодарили: 1
1.05%
Добавьте пожалуйста русские субтитры :)
Показать сообщения:   
Начать новую тему   Ответить на тему    Торрент-трекер NNM-Club -> Зарубежное кино -> Фильмы в оригинале (HD) Часовой пояс: GMT + 3
Страница 1 из 1