Интеллигентный торрент-трекер
canvas not supported
Нас вместе: 4 332 561

Nebulo - Discography 9 Releases (2006-2016) Hymen Records [FLAC|Lossless|tracks+.cue, tracks] <IDM, Ambient, Experimental, Glitch>


 
 
RSS
Начать новую тему   Ответить на тему    Торрент-трекер NNM-Club -> Electronic -> IDM (Lossless)
Автор Сообщение
vilator ®
Модератор Музыки
RG Music
 
Стаж: 8 лет 3 мес.
Сообщений: 5931
Ratio: 133,875
Поблагодарили: 117972
100%
Откуда: Minsk
pirates.png
Nebulo Discography

Nebulo is the solo project from French composer and producer Thomas Pujols.
Жанр: IDM, Ambient, Industrial, Techno, Experimental, Glitch • Страна: France • Год: 2006-2016 • Тип издания: CD, Web
Аудиокодек: FLAC (*.flac) • Тип рипа: tracks+.cue, tracks • Продолжительность: 06:13:39 • Источник: What, bandcamp
Треклист:
Год выпуска: 2006
Продолжительность: 00:57:10
Треклист:

01. Ant (03:20)
02. Automnal (05:07)
03. Dr-ill (03:18)
04. Darkopale (05:58)
05. Wen (06:54)
06. Reverse (01:56)
07. Mecaniduction (04:08)
08. Klik Me (04:15)
09. Nebula (03:30)
10. Siapese (04:53)
11. Nokta (03:29)
12. Mecalangue (Remix By Alix) (04:32)
13. Darkopale (Remix By Ginormous) (05:50)

Exact Audio Copy V0.99 prebeta 4 from 23. January 2008

EAC extraction logfile from 20. September 2008, 22:33

Nebulo / Kolia

Used drive : _NEC DVD_RW ND-3550A Adapter: 0 ID: 0

Read mode : Secure
Utilize accurate stream : Yes
Defeat audio cache : Yes
Make use of C2 pointers : No

Read offset correction : 48
Overread into Lead-In and Lead-Out : No
Fill up missing offset samples with silence : Yes
Delete leading and trailing silent blocks : No
Null samples used in CRC calculations : Yes
Used interface : Installed external ASPI interface
Gap handling : Appended to previous track

Used output format : User Defined Encoder
Selected bitrate : 1024 kBit/s
Quality : High
Add ID3 tag : No
Command line compressor : D:\Programs\Tools\_Exact Audio Copy\FLAC\FLAC.EXE
Additional command line options : -8 -V -T "ARTIST=%a" -T "TITLE=%t" -T "ALBUM=%g" -T "DATE=%y" -T "TRACKNUMBER=%n" -T "GENRE=%m" -T "COMMENT=%e" %s -o %d

TOC of the extracted CD

Track | Start | Length | Start sector | End sector
---------------------------------------------------------
1 | 0:00.00 | 3:19.37 | 0 | 14961
2 | 3:19.37 | 5:06.69 | 14962 | 37980
3 | 8:26.31 | 3:17.57 | 37981 | 52812
4 | 11:44.13 | 5:58.18 | 52813 | 79680
5 | 17:42.31 | 6:53.68 | 79681 | 110723
6 | 24:36.24 | 1:56.08 | 110724 | 119431
7 | 26:32.32 | 4:07.42 | 119432 | 137998
8 | 30:39.74 | 4:15.27 | 137999 | 157150
9 | 34:55.26 | 3:30.02 | 157151 | 172902
10 | 38:25.28 | 4:53.11 | 172903 | 194888
11 | 43:18.39 | 3:29.08 | 194889 | 210571
12 | 46:47.47 | 4:32.02 | 210572 | 230973
13 | 51:19.49 | 5:50.18 | 230974 | 257241

Track 1

Filename G:\EAC Temporare\01 Ant.wav

Pre-gap length 0:00:02.00

Peak level 96.6 %
Track quality 100.0 %
Test CRC 6C366D28
Copy CRC 6C366D28
Track not present in AccurateRip database
Copy OK

Track 2

Filename G:\EAC Temporare\02 Automnal.wav

Peak level 86.2 %
Track quality 100.0 %
Test CRC 5A64D03F
Copy CRC 5A64D03F
Track not present in AccurateRip database
Copy OK

Track 3

Filename G:\EAC Temporare\03 Dr-ill.wav

Peak level 96.6 %
Track quality 100.0 %
Test CRC 88EE3966
Copy CRC 88EE3966
Track not present in AccurateRip database
Copy OK

Track 4

Filename G:\EAC Temporare\04 Darkopale.wav

Peak level 91.0 %
Track quality 100.0 %
Test CRC 76912945
Copy CRC 76912945
Track not present in AccurateRip database
Copy OK

Track 5

Filename G:\EAC Temporare\05 Wen.wav

Peak level 96.6 %
Track quality 100.0 %
Test CRC 96789CB9
Copy CRC 96789CB9
Track not present in AccurateRip database
Copy OK

Track 6

Filename G:\EAC Temporare\06 Reverse.wav

Peak level 81.3 %
Track quality 100.0 %
Test CRC 493C01F3
Copy CRC 493C01F3
Track not present in AccurateRip database
Copy OK

Track 7

Filename G:\EAC Temporare\07 Mecaniduction.wav

Peak level 96.6 %
Track quality 100.0 %
Test CRC 74C7B492
Copy CRC 74C7B492
Track not present in AccurateRip database
Copy OK

Track 8

Filename G:\EAC Temporare\08 Klik Me.wav

Peak level 96.6 %
Track quality 99.9 %
Test CRC F337A3DB
Copy CRC F337A3DB
Track not present in AccurateRip database
Copy OK

Track 9

Filename G:\EAC Temporare\09 Nebula.wav

Peak level 91.3 %
Track quality 100.0 %
Test CRC 92B81079
Copy CRC 92B81079
Track not present in AccurateRip database
Copy OK

Track 10

Filename G:\EAC Temporare\10 Siapese.wav

Peak level 81.1 %
Track quality 100.0 %
Test CRC D813B0B1
Copy CRC D813B0B1
Track not present in AccurateRip database
Copy OK

Track 11

Filename G:\EAC Temporare\11 Nokta.wav

Peak level 96.6 %
Track quality 100.0 %
Test CRC 938EA639
Copy CRC 938EA639
Track not present in AccurateRip database
Copy OK

Track 12

Filename G:\EAC Temporare\12 Mecalangue (Remix By Alix).wav

Peak level 90.8 %
Track quality 100.0 %
Test CRC 79A322A0
Copy CRC 79A322A0
Track not present in AccurateRip database
Copy OK

Track 13

Filename G:\EAC Temporare\13 Darkopale (Remix By Ginormous).wav

Peak level 94.0 %
Track quality 99.9 %
Test CRC E856EB5F
Copy CRC E856EB5F
Track not present in AccurateRip database
Copy OK

None of the tracks are present in the AccurateRip database

No errors occurred

End of status report


REM GENRE IDM
REM DATE 2006
REM DISCID A40D650D
REM COMMENT ExactAudioCopy v0.99pb4
PERFORMER "Nebulo"
TITLE "Kolia"
FILE "01 Ant.flac" WAVE
TRACK 01 AUDIO
TITLE "Ant"
INDEX 01 00:00:00
FILE "02 Automnal.flac" WAVE
TRACK 02 AUDIO
TITLE "Automnal"
INDEX 01 00:00:00
FILE "03 Dr-ill.flac" WAVE
TRACK 03 AUDIO
TITLE "Dr-ill"
INDEX 01 00:00:00
FILE "04 Darkopale.flac" WAVE
TRACK 04 AUDIO
TITLE "Darkopale"
INDEX 01 00:00:00
FILE "05 Wen.flac" WAVE
TRACK 05 AUDIO
TITLE "Wen"
INDEX 01 00:00:00
FILE "06 Reverse.flac" WAVE
TRACK 06 AUDIO
TITLE "Reverse"
INDEX 01 00:00:00
FILE "07 Mecaniduction.flac" WAVE
TRACK 07 AUDIO
TITLE "Mecaniduction"
INDEX 01 00:00:00
FILE "08 Klik Me.flac" WAVE
TRACK 08 AUDIO
TITLE "Klik Me"
INDEX 01 00:00:00
FILE "09 Nebula.flac" WAVE
TRACK 09 AUDIO
TITLE "Nebula"
INDEX 01 00:00:00
FILE "10 Siapese.flac" WAVE
TRACK 10 AUDIO
TITLE "Siapese"
INDEX 01 00:00:00
FILE "11 Nokta.flac" WAVE
TRACK 11 AUDIO
TITLE "Nokta"
INDEX 01 00:00:00
FILE "12 Mecalangue (Remix By Alix).flac" WAVE
TRACK 12 AUDIO
TITLE "Mecalangue (Remix By Alix)"
INDEX 01 00:00:00
FILE "13 Darkopale (Remix By Ginormous).flac" WAVE
TRACK 13 AUDIO
TITLE "Darkopale (Remix By Ginormous)"
INDEX 01 00:00:00

Год выпуска: 2008
Продолжительность: 00:58:27
Треклист:

01. Lactoz Pill (02:47)
02. Liminal (05:04)
03. P (06:53)
04. Evice / Revengine (04:14)
05. Accident (03:34)
06. Stramir (02:53)
07. Kido / Pause (05:44)
08. Substeel Animal (04:45)
09. Limbes / Coton-Poudre (05:32)
10. Videogamma (04:25)
11. Trembledoux / Varia P (04:35)
12. Sirenãvutmã (08:01)

Exact Audio Copy V0.99 prebeta 3 from 28. July 2007

EAC extraction logfile from 11. September 2008, 13:32

Nebulo / Гvutmг

Used drive : PLEXTOR DVDR PX-716AL Adapter: 3 ID: 0

Read mode : Secure
Utilize accurate stream : Yes
Defeat audio cache : Yes
Make use of C2 pointers : No

Read offset correction : 30
Overread into Lead-In and Lead-Out : Yes
Fill up missing offset samples with silence : Yes
Delete leading and trailing silent blocks : No
Null samples used in CRC calculations : Yes
Used interface : Installed external ASPI interface
Gap handling : Appended to previous track

Used output format : User Defined Encoder
Selected bitrate : 192 kBit/s
Quality : High
Add ID3 tag : No
Command line compressor : C:\Programme\Exact Audio Copy\Flac\flac.exe
Additional command line options : -8 -A tukey(0.25) -A gauss(0.1875) -b 4096 -V -T "artist=%a" -T "title=%t" -T "album=%g" -T "date=%y" -T "tracknumber=%n" -T "genre=%m" %s --sector-align

TOC of the extracted CD

Track | Start | Length | Start sector | End sector
---------------------------------------------------------
1 | 0:00.00 | 2:47.30 | 0 | 12554
2 | 2:47.30 | 5:03.74 | 12555 | 35353
3 | 7:51.29 | 6:52.68 | 35354 | 66321
4 | 14:44.22 | 4:14.21 | 66322 | 85392
5 | 18:58.43 | 3:33.49 | 85393 | 101416
6 | 22:32.17 | 2:52.59 | 101417 | 114375
7 | 25:25.01 | 5:44.32 | 114376 | 140207
8 | 31:09.33 | 4:44.63 | 140208 | 161570
9 | 35:54.21 | 5:32.36 | 161571 | 186506
10 | 41:26.57 | 4:25.08 | 186507 | 206389
11 | 45:51.65 | 4:35.05 | 206390 | 227019
12 | 50:26.70 | 8:00.52 | 227020 | 263071

Track 1

Filename c:\work\Nebulo - Гvutmг\01 - Lactoz Pill.wav

Pre-gap length 0:00:02.00

Peak level 90.7 %
Track quality 100.0 %
Test CRC EFA5E5F9
Copy CRC EFA5E5F9
Track not present in AccurateRip database
Copy OK

Track 2

Filename c:\work\Nebulo - Гvutmг\02 - Liminal.wav

Pre-gap length 0:00:02.00

Peak level 96.6 %
Track quality 100.0 %
Test CRC DEBB5D98
Copy CRC DEBB5D98
Track not present in AccurateRip database
Copy OK

Track 3

Filename c:\work\Nebulo - Гvutmг\03 - P.wav

Pre-gap length 0:00:02.00

Peak level 96.6 %
Track quality 100.0 %
Test CRC C22A27DC
Copy CRC C22A27DC
Track not present in AccurateRip database
Copy OK

Track 4

Filename c:\work\Nebulo - Гvutmг\04 - Evice , Revengine.wav

Pre-gap length 0:00:02.00

Peak level 81.2 %
Track quality 100.0 %
Test CRC 0D520E47
Copy CRC 0D520E47
Track not present in AccurateRip database
Copy OK

Track 5

Filename c:\work\Nebulo - Гvutmг\05 - Accident.wav

Pre-gap length 0:00:02.00

Peak level 96.6 %
Track quality 100.0 %
Test CRC AE1EAC67
Copy CRC AE1EAC67
Track not present in AccurateRip database
Copy OK

Track 6

Filename c:\work\Nebulo - Гvutmг\06 - Stramir.wav

Pre-gap length 0:00:02.00

Peak level 78.4 %
Track quality 100.0 %
Test CRC DEFBAACE
Copy CRC DEFBAACE
Track not present in AccurateRip database
Copy OK

Track 7

Filename c:\work\Nebulo - Гvutmг\07 - Kido , Pause.wav

Pre-gap length 0:00:02.00

Peak level 96.6 %
Track quality 100.0 %
Test CRC CE49F713
Copy CRC CE49F713
Track not present in AccurateRip database
Copy OK

Track 8

Filename c:\work\Nebulo - Гvutmг\08 - Substeel Animal.wav

Pre-gap length 0:00:02.00

Peak level 96.6 %
Track quality 100.0 %
Test CRC 5283B22A
Copy CRC 5283B22A
Track not present in AccurateRip database
Copy OK

Track 9

Filename c:\work\Nebulo - Гvutmг\09 - Limbes , Coton-Poudre.wav

Pre-gap length 0:00:02.00

Peak level 84.0 %
Track quality 100.0 %
Test CRC 47B0273F
Copy CRC 47B0273F
Track not present in AccurateRip database
Copy OK

Track 10

Filename c:\work\Nebulo - Гvutmг\10 - Videogamma.wav

Pre-gap length 0:00:01.98

Peak level 91.0 %
Track quality 100.0 %
Test CRC FCC3883E
Copy CRC FCC3883E
Track not present in AccurateRip database
Copy OK

Track 11

Filename c:\work\Nebulo - Гvutmг\11 - Trembledoux , Varia P.wav

Pre-gap length 0:00:02.00

Peak level 96.6 %
Track quality 100.0 %
Test CRC E7B77A97
Copy CRC E7B77A97
Track not present in AccurateRip database
Copy OK

Track 12

Filename c:\work\Nebulo - Гvutmг\12 - Sirenгvutmг.wav

Pre-gap length 0:00:02.00

Peak level 91.0 %
Track quality 100.0 %
Test CRC C526EBD3
Copy CRC C526EBD3
Track not present in AccurateRip database
Copy OK

None of the tracks are present in the AccurateRip database

No errors occurred

End of status report


REM GENRE Electronic
REM DATE 2008
REM DISCID AB0DB30C
REM COMMENT "ExactAudioCopy v0.99pb3"
PERFORMER "Nebulo"
TITLE "Ãvutmã"
FILE "01 - Lactoz Pill.wav" WAVE
TRACK 01 AUDIO
TITLE "Lactoz Pill"
PERFORMER "Nebulo"
INDEX 01 00:00:00
TRACK 02 AUDIO
TITLE "Liminal"
PERFORMER "Nebulo"
INDEX 00 02:45:30
FILE "02 - Liminal.wav" WAVE
INDEX 01 00:00:00
TRACK 03 AUDIO
TITLE "P"
PERFORMER "Nebulo"
INDEX 00 05:01:74
FILE "03 - P.wav" WAVE
INDEX 01 00:00:00
TRACK 04 AUDIO
TITLE "Evice / Revengine"
PERFORMER "Nebulo"
INDEX 00 06:50:68
FILE "04 - Evice , Revengine.wav" WAVE
INDEX 01 00:00:00
INDEX 02 03:07:65
TRACK 05 AUDIO
TITLE "Accident"
PERFORMER "Nebulo"
INDEX 00 04:12:21
FILE "05 - Accident.wav" WAVE
INDEX 01 00:00:00
TRACK 06 AUDIO
TITLE "Stramir"
PERFORMER "Nebulo"
INDEX 00 03:31:49
FILE "06 - Stramir.wav" WAVE
INDEX 01 00:00:00
TRACK 07 AUDIO
TITLE "Kido / Pause"
PERFORMER "Nebulo"
INDEX 00 02:50:59
FILE "07 - Kido , Pause.wav" WAVE
INDEX 01 00:00:00
INDEX 02 04:43:36
TRACK 08 AUDIO
TITLE "Substeel Animal"
PERFORMER "Nebulo"
INDEX 00 05:42:32
FILE "08 - Substeel Animal.wav" WAVE
INDEX 01 00:00:00
TRACK 09 AUDIO
TITLE "Limbes / Coton-Poudre"
PERFORMER "Nebulo"
INDEX 00 04:42:63
FILE "09 - Limbes , Coton-Poudre.wav" WAVE
INDEX 01 00:00:00
TRACK 10 AUDIO
TITLE "Videogamma"
PERFORMER "Nebulo"
INDEX 00 05:30:37
FILE "10 - Videogamma.wav" WAVE
INDEX 01 00:00:00
TRACK 11 AUDIO
TITLE "Trembledoux / Varia P"
PERFORMER "Nebulo"
INDEX 00 04:23:08
FILE "11 - Trembledoux , Varia P.wav" WAVE
INDEX 01 00:00:00
INDEX 02 03:22:40
TRACK 12 AUDIO
TITLE "Sirenãvutmã"
PERFORMER "Nebulo"
INDEX 00 04:33:05
FILE "12 - Sirenãvutmãwav" WAVE
INDEX 01 00:00:00

Год выпуска: 2010
Продолжительность: 00:53:32
Треклист:

01. Exit Stress Test (03:26)
02. Plasticmare (04:58)
03. Guerilla (01:19)
04. Batman Dancefloor (04:46)
05. Acreee (04:50)
06. Eancall (00:38)
07. Aer Vacuum (04:28)
08. Drunk Animal Police (03:46)
09. Vodoo Machines (02:02)
10. Meriadeck (02:41)
11. Radiogoo (06:58)
12. 123 Kill Me (01:01)
13. Map Artefact (05:21)
14. Partywar (01:22)
15. Novil (05:56)

Exact Audio Copy V0.99 prebeta 5 from 4. May 2009

EAC extraction logfile from 14. September 2010, 16:29

Nebulo / Artefact

Used drive : TSSTcorpCDDVDW SH-S223L Adapter: 1 ID: 0

Read mode : Secure
Utilize accurate stream : Yes
Defeat audio cache : Yes
Make use of C2 pointers : No

Read offset correction : 6
Overread into Lead-In and Lead-Out : No
Fill up missing offset samples with silence : Yes
Delete leading and trailing silent blocks : No
Null samples used in CRC calculations : Yes
Used interface : Native Win32 interface for Win NT & 2000
Gap handling : Appended to previous track

Used output format : User Defined Encoder
Selected bitrate : 128 kBit/s
Quality : High
Add ID3 tag : No
Command line compressor : C:\Program Files (x86)\Exact Audio Copy\Flac\flac.exe
Additional command line options : -V -8 -T "artist=%a" -T "title=%t" -T "album=%g" -T "date=%y" -T "tracknumber=%n" -T "genre=%m" %s

TOC of the extracted CD

Track | Start | Length | Start sector | End sector
---------------------------------------------------------
1 | 0:00.00 | 3:26.11 | 0 | 15460
2 | 3:26.11 | 4:57.59 | 15461 | 37794
3 | 8:23.70 | 1:19.02 | 37795 | 43721
4 | 9:42.72 | 4:46.34 | 43722 | 65205
5 | 14:29.31 | 4:49.49 | 65206 | 86929
6 | 19:19.05 | 0:37.58 | 86930 | 89762
7 | 19:56.63 | 4:28.28 | 89763 | 109890
8 | 24:25.16 | 3:45.58 | 109891 | 126823
9 | 28:10.74 | 2:01.49 | 126824 | 135947
10 | 30:12.48 | 2:40.45 | 135948 | 147992
11 | 32:53.18 | 6:58.00 | 147993 | 179342
12 | 39:51.18 | 1:00.66 | 179343 | 183908
13 | 40:52.09 | 5:20.48 | 183909 | 207956
14 | 46:12.57 | 1:22.08 | 207957 | 214114
15 | 47:34.65 | 5:55.45 | 214115 | 240784

Track 1

Filename D:\fresh\2010 Artefact [flac]\Nebulo - 01 - exit stress test.wav

Pre-gap length 0:00:02.00

Peak level 96.7 %
Track quality 100.0 %
Test CRC CD96C2BC
Copy CRC CD96C2BC
Track not present in AccurateRip database
Copy OK

Track 2

Filename D:\fresh\2010 Artefact [flac]\Nebulo - 02 - plasticmare.wav

Peak level 96.7 %
Track quality 100.0 %
Test CRC E28400E6
Copy CRC E28400E6
Track not present in AccurateRip database
Copy OK

Track 3

Filename D:\fresh\2010 Artefact [flac]\Nebulo - 03 - guerilla.wav

Peak level 96.7 %
Track quality 99.8 %
Test CRC 75E8BF82
Copy CRC 75E8BF82
Track not present in AccurateRip database
Copy OK

Track 4

Filename D:\fresh\2010 Artefact [flac]\Nebulo - 04 - batman dancefloor.wav

Peak level 91.3 %
Track quality 100.0 %
Test CRC A9822A2A
Copy CRC A9822A2A
Track not present in AccurateRip database
Copy OK

Track 5

Filename D:\fresh\2010 Artefact [flac]\Nebulo - 05 - acreee.wav

Peak level 96.7 %
Track quality 100.0 %
Test CRC 65E0E413
Copy CRC 65E0E413
Track not present in AccurateRip database
Copy OK

Track 6

Filename D:\fresh\2010 Artefact [flac]\Nebulo - 06 - eancall.wav

Peak level 68.4 %
Track quality 100.0 %
Test CRC EB65497E
Copy CRC EB65497E
Track not present in AccurateRip database
Copy OK

Track 7

Filename D:\fresh\2010 Artefact [flac]\Nebulo - 07 - aer vacuum.wav

Peak level 96.7 %
Track quality 100.0 %
Test CRC AFCDDAD7
Copy CRC AFCDDAD7
Track not present in AccurateRip database
Copy OK

Track 8

Filename D:\fresh\2010 Artefact [flac]\Nebulo - 08 - drunk animal police.wav

Peak level 96.7 %
Track quality 99.9 %
Test CRC 016D4CF6
Copy CRC 016D4CF6
Track not present in AccurateRip database
Copy OK

Track 9

Filename D:\fresh\2010 Artefact [flac]\Nebulo - 09 - vodoo machines.wav

Peak level 91.3 %
Track quality 100.0 %
Test CRC AEDB9AFB
Copy CRC AEDB9AFB
Track not present in AccurateRip database
Copy OK

Track 10

Filename D:\fresh\2010 Artefact [flac]\Nebulo - 10 - meriadeck.wav

Peak level 91.3 %
Track quality 100.0 %
Test CRC BC6D7199
Copy CRC BC6D7199
Track not present in AccurateRip database
Copy OK

Track 11

Filename D:\fresh\2010 Artefact [flac]\Nebulo - 11 - radiogoo.wav

Peak level 96.7 %
Track quality 100.0 %
Test CRC B48FD540
Copy CRC B48FD540
Track not present in AccurateRip database
Copy OK

Track 12

Filename D:\fresh\2010 Artefact [flac]\Nebulo - 12 - 123 kill me.wav

Peak level 96.7 %
Track quality 100.0 %
Test CRC F4AC24CC
Copy CRC F4AC24CC
Track not present in AccurateRip database
Copy OK

Track 13

Filename D:\fresh\2010 Artefact [flac]\Nebulo - 13 - map artefact.wav

Peak level 88.2 %
Track quality 100.0 %
Test CRC 7E2397F9
Copy CRC 7E2397F9
Track not present in AccurateRip database
Copy OK

Track 14

Filename D:\fresh\2010 Artefact [flac]\Nebulo - 14 - partywar.wav

Peak level 96.7 %
Track quality 100.0 %
Test CRC C2625B2A
Copy CRC C2625B2A
Track not present in AccurateRip database
Copy OK

Track 15

Filename D:\fresh\2010 Artefact [flac]\Nebulo - 15 - novil.wav

Peak level 96.7 %
Track quality 100.0 %
Test CRC 6B6C1749
Copy CRC 6B6C1749
Track not present in AccurateRip database
Copy OK

None of the tracks are present in the AccurateRip database

No errors occurred

End of status report


REM GENRE Electronic
REM DATE 2010
REM DISCID E40C8A0F
REM COMMENT "ExactAudioCopy v0.99pb5"
FILE "01. Exit Stress Test.wav" WAVE
TRACK 01 AUDIO
INDEX 01 00:00:00
FILE "02. Plasticmare.wav" WAVE
TRACK 02 AUDIO
INDEX 01 00:00:00
FILE "03. Guerilla.wav" WAVE
TRACK 03 AUDIO
INDEX 01 00:00:00
FILE "04. Batman Dancefloor.wav" WAVE
TRACK 04 AUDIO
INDEX 01 00:00:00
FILE "05. Acreee.wav" WAVE
TRACK 05 AUDIO
INDEX 01 00:00:00
FILE "06. Eancall.wav" WAVE
TRACK 06 AUDIO
INDEX 01 00:00:00
FILE "07. Aer Vacuum.wav" WAVE
TRACK 07 AUDIO
INDEX 01 00:00:00
FILE "08. Drunk Animal Police.wav" WAVE
TRACK 08 AUDIO
INDEX 01 00:00:00
FILE "09. Vodoo Machines.wav" WAVE
TRACK 09 AUDIO
INDEX 01 00:00:00
FILE "10. Meriadeck.wav" WAVE
TRACK 10 AUDIO
INDEX 01 00:00:00
FILE "11. Radiogoo.wav" WAVE
TRACK 11 AUDIO
INDEX 01 00:00:00
FILE "12. 123 Kill Me.wav" WAVE
TRACK 12 AUDIO
INDEX 01 00:00:00
FILE "13. Map Artefact.wav" WAVE
TRACK 13 AUDIO
INDEX 01 00:00:00
FILE "14. Partywar.wav" WAVE
TRACK 14 AUDIO
INDEX 01 00:00:00
FILE "15. Novil.wav" WAVE
TRACK 15 AUDIO
INDEX 01 00:00:00

Год выпуска: 2012
Продолжительность: 00:40:38
Треклист:

01. Octo (04:11)
02. Asht (04:57)
03. Redkosh (03:11)
04. Quenz (03:26)
05. Mu (05:15)
06. Baikal (04:41)
07. Fragm (05:13)
08. Arcadic (02:20)
09. Smax (05:44)
10. Icon (01:40)

X Lossless Decoder version 20130407 (143.0)

XLD extraction logfile from 2013-06-22 13:22:45 +0200

Nebulo / Cardiac

Used drive : MATSHITA DVD-R UJ-857E (revision ZB0E)
Media type : Pressed CD

Ripper mode : XLD Secure Ripper
Disable audio cache : OK for the drive with a cache less than 1375KiB
Make use of C2 pointers : NO
Read offset correction : 102
Max retry count : 20
Gap status : Analyzed, Appended (except HTOA)

TOC of the extracted CD
Track | Start | Length | Start sector | End sector
---------------------------------------------------------
1 | 00:00:00 | 04:11:00 | 0 | 18824
2 | 04:11:00 | 04:57:04 | 18825 | 41103
3 | 09:08:04 | 03:10:58 | 41104 | 55411
4 | 12:18:62 | 03:26:18 | 55412 | 70879
5 | 15:45:05 | 05:14:49 | 70880 | 94478
6 | 20:59:54 | 04:41:00 | 94479 | 115553
7 | 25:40:54 | 05:13:30 | 115554 | 139058
8 | 30:54:09 | 02:19:59 | 139059 | 149542
9 | 33:13:68 | 05:44:30 | 149543 | 175372
10 | 38:58:23 | 01:40:36 | 175373 | 182908

AccurateRip Summary
Disc not found in AccurateRip DB.

All Tracks
Album gain : -4.00 dB
Peak : 0.957306
Statistics
Read error : 0
Jitter error (maybe fixed) : 0
Retry sector count : 0
Damaged sector count : 0

Track 01
Filename : /T/Nebulo - Cardiac (2012) [FLAC]/01 Octo.flac
Pre-gap length : 00:02:00

Track gain : -1.38 dB
Peak : 0.942352
CRC32 hash (test run) : 70DF1E1E
CRC32 hash : 70DF1E1E
CRC32 hash (skip zero) : BE92D5FB
AccurateRip v1 signature : D22886BA
AccurateRip v2 signature : 4A7FE625
->Track not present in AccurateRip database.
Statistics
Read error : 0
Jitter error (maybe fixed) : 0
Retry sector count : 0
Damaged sector count : 0

Track 02
Filename : /T/Nebulo - Cardiac (2012) [FLAC]/02 Asht.flac

Track gain : -4.84 dB
Peak : 0.950989
CRC32 hash (test run) : CA811062
CRC32 hash : CA811062
CRC32 hash (skip zero) : 49927226
AccurateRip v1 signature : 7544632B
AccurateRip v2 signature : 55EE83DA
->Track not present in AccurateRip database.
Statistics
Read error : 0
Jitter error (maybe fixed) : 0
Retry sector count : 0
Damaged sector count : 0

Track 03
Filename : /T/Nebulo - Cardiac (2012) [FLAC]/03 Redkosh.flac

Track gain : -4.51 dB
Peak : 0.940918
CRC32 hash (test run) : 974AF885
CRC32 hash : 974AF885
CRC32 hash (skip zero) : 70096D02
AccurateRip v1 signature : 51B8325B
AccurateRip v2 signature : E431798B
->Track not present in AccurateRip database.
Statistics
Read error : 0
Jitter error (maybe fixed) : 0
Retry sector count : 0
Damaged sector count : 0

Track 04
Filename : /T/Nebulo - Cardiac (2012) [FLAC]/04 Quenz.flac

Track gain : -2.79 dB
Peak : 0.945862
CRC32 hash (test run) : 85A2F0D0
CRC32 hash : 85A2F0D0
CRC32 hash (skip zero) : 6D55D5EA
AccurateRip v1 signature : E4748F29
AccurateRip v2 signature : 1583F17D
->Track not present in AccurateRip database.
Statistics
Read error : 0
Jitter error (maybe fixed) : 0
Retry sector count : 0
Damaged sector count : 0

Track 05
Filename : /T/Nebulo - Cardiac (2012) [FLAC]/05 Mu.flac

Track gain : -2.78 dB
Peak : 0.943756
CRC32 hash (test run) : F659901E
CRC32 hash : F659901E
CRC32 hash (skip zero) : BE7612FF
AccurateRip v1 signature : 273D6CC0
AccurateRip v2 signature : 11D3D9C3
->Track not present in AccurateRip database.
Statistics
Read error : 0
Jitter error (maybe fixed) : 0
Retry sector count : 0
Damaged sector count : 0

Track 06
Filename : /T/Nebulo - Cardiac (2012) [FLAC]/06 Baïkal.flac

Track gain : -3.60 dB
Peak : 0.946289
CRC32 hash (test run) : 75ED2B62
CRC32 hash : 75ED2B62
CRC32 hash (skip zero) : A928AA4D
AccurateRip v1 signature : 749B1916
AccurateRip v2 signature : 00E33923
->Track not present in AccurateRip database.
Statistics
Read error : 0
Jitter error (maybe fixed) : 0
Retry sector count : 0
Damaged sector count : 0

Track 07
Filename : /T/Nebulo - Cardiac (2012) [FLAC]/07 Fragm.flac

Track gain : -4.83 dB
Peak : 0.949188
CRC32 hash (test run) : 91B9F8C7
CRC32 hash : 91B9F8C7
CRC32 hash (skip zero) : 7F4BB4D5
AccurateRip v1 signature : 1F47BF26
AccurateRip v2 signature : C6F96C2E
->Track not present in AccurateRip database.
Statistics
Read error : 0
Jitter error (maybe fixed) : 0
Retry sector count : 0
Damaged sector count : 0

Track 08
Filename : /T/Nebulo - Cardiac (2012) [FLAC]/08 Arcadic.flac

Track gain : -5.00 dB
Peak : 0.951691
CRC32 hash (test run) : A58E075D
CRC32 hash : A58E075D
CRC32 hash (skip zero) : 0D796CF4
AccurateRip v1 signature : 8560689B
AccurateRip v2 signature : 99952482
->Track not present in AccurateRip database.
Statistics
Read error : 0
Jitter error (maybe fixed) : 0
Retry sector count : 0
Damaged sector count : 0

Track 09
Filename : /T/Nebulo - Cardiac (2012) [FLAC]/09 Smax.flac

Track gain : -2.88 dB
Peak : 0.957306
CRC32 hash (test run) : 095C0C33
CRC32 hash : 095C0C33
CRC32 hash (skip zero) : 407FEAC4
AccurateRip v1 signature : 2686B827
AccurateRip v2 signature : 3EFAC1D2
->Track not present in AccurateRip database.
Statistics
Read error : 0
Jitter error (maybe fixed) : 0
Retry sector count : 0
Damaged sector count : 0

Track 10
Filename : /T/Nebulo - Cardiac (2012) [FLAC]/10 Icon.flac

Track gain : -2.37 dB
Peak : 0.939941
CRC32 hash (test run) : 03F77393
CRC32 hash : 03F77393
CRC32 hash (skip zero) : 4D667C61
AccurateRip v1 signature : C562128C
AccurateRip v2 signature : E691B5F5
->Track not present in AccurateRip database.
Statistics
Read error : 0
Jitter error (maybe fixed) : 0
Retry sector count : 0
Damaged sector count : 0

No errors occurred

End of status report


TITLE "Cardiac"
PERFORMER "Nebulo"
CATALOG 0821272306924
REM GENRE "Electronica"
REM DATE "2012"
REM DISCNUMBER 1
REM TOTALDISCS 1
REM DISCID 8009860A
REM REPLAYGAIN_ALBUM_GAIN -4.00 dB
REM REPLAYGAIN_ALBUM_PEAK 0.957306
FILE "01 Octo.flac" WAVE
TRACK 01 AUDIO
TITLE "Octo"
ISRC DEEX20560065
REM REPLAYGAIN_TRACK_GAIN -1.38 dB
REM REPLAYGAIN_TRACK_PEAK 0.942352
INDEX 01 00:00:00
FILE "02 Asht.flac" WAVE
TRACK 02 AUDIO
TITLE "Asht"
ISRC DEEX20560066
REM REPLAYGAIN_TRACK_GAIN -4.84 dB
REM REPLAYGAIN_TRACK_PEAK 0.950989
INDEX 01 00:00:00
FILE "03 Redkosh.flac" WAVE
TRACK 03 AUDIO
TITLE "Redkosh"
ISRC DEEX20560067
REM REPLAYGAIN_TRACK_GAIN -4.51 dB
REM REPLAYGAIN_TRACK_PEAK 0.940918
INDEX 01 00:00:00
FILE "04 Quenz.flac" WAVE
TRACK 04 AUDIO
TITLE "Quenz"
ISRC DEEX20560068
REM REPLAYGAIN_TRACK_GAIN -2.79 dB
REM REPLAYGAIN_TRACK_PEAK 0.945862
INDEX 01 00:00:00
FILE "05 Mu.flac" WAVE
TRACK 05 AUDIO
TITLE "Mu"
ISRC DEEX20560069
REM REPLAYGAIN_TRACK_GAIN -2.78 dB
REM REPLAYGAIN_TRACK_PEAK 0.943756
INDEX 01 00:00:00
FILE "06 Baïkal.flac" WAVE
TRACK 06 AUDIO
TITLE "Baïkal"
ISRC DEEX20560070
REM REPLAYGAIN_TRACK_GAIN -3.60 dB
REM REPLAYGAIN_TRACK_PEAK 0.946289
INDEX 01 00:00:00
FILE "07 Fragm.flac" WAVE
TRACK 07 AUDIO
TITLE "Fragm"
ISRC DEEX20560071
REM REPLAYGAIN_TRACK_GAIN -4.83 dB
REM REPLAYGAIN_TRACK_PEAK 0.949188
INDEX 01 00:00:00
FILE "08 Arcadic.flac" WAVE
TRACK 08 AUDIO
TITLE "Arcadic"
ISRC DEEX20560072
REM REPLAYGAIN_TRACK_GAIN -5.00 dB
REM REPLAYGAIN_TRACK_PEAK 0.951691
INDEX 01 00:00:00
FILE "09 Smax.flac" WAVE
TRACK 09 AUDIO
TITLE "Smax"
ISRC DEEX20560073
REM REPLAYGAIN_TRACK_GAIN -2.88 dB
REM REPLAYGAIN_TRACK_PEAK 0.957306
INDEX 01 00:00:00
FILE "10 Icon.flac" WAVE
TRACK 10 AUDIO
TITLE "Icon"
ISRC DEEX20560074
REM REPLAYGAIN_TRACK_GAIN -2.37 dB
REM REPLAYGAIN_TRACK_PEAK 0.939941
INDEX 01 00:00:00

Год выпуска: 2013
Продолжительность: 00:21:26
Треклист:

01. Basements (05:15)
02. Fishli (04:00)
03. Yarn (02:51)
04. Coryza II (04:35)
05. Training (04:45)

-----------------------

DON'T MODIFY THIS FILE

-----------------------

PERFORMER: auCDtect Task Manager, ver. 1.5.1RC6 build 1.5.1.7
Copyright (c) 2008-2010 y-soft. All rights reserved
http://y-soft.org

ANALYZER: auCDtect: CD records authenticity detector, version 0.8.2
Copyright (c) 2004 Oleg Berngardt. All rights reserved.
Copyright (c) 2004 Alexander Djourik. All rights reserved.

FILE: 01. Basements.flac
Size: 34579942 Hash: E74AFCD142CE7B68E64C3F67AD907760 Accuracy: -m0
Conclusion: CDDA 100%
Signature: CFD3BD75122D1A643A336E6BFFF2601B957A2826
FILE: 05. Training.flac
Size: 31368137 Hash: A9EAD6B379D7E014A8BB69100F12B9BF Accuracy: -m0
Conclusion: CDDA 100%
Signature: E85BAD60CB64BDCB4E1DAF2E6D3DB912B2BEDC0B
FILE: 04. Coryza II.flac
Size: 28155491 Hash: 88111F4336D19B3E3F873B2330452229 Accuracy: -m0
Conclusion: CDDA 86%
Signature: 8D1A7B578ACB09FC4084813E47694B6D3BC3DEDE
FILE: 03. Yarn.flac
Size: 12065353 Hash: 7F188EA055C9AB64FF6658150C1BEE9D Accuracy: -m0
Conclusion: CDDA 99%
Signature: 7393587DA358314ADD07C161F573615904B067A4
FILE: 02. Fishli.flac
Size: 26277625 Hash: 23C99E65203243658F3D17D579A34FC3 Accuracy: -m0
Conclusion: CDDA 100%
Signature: 8DBFF58313B4126996A3A558639BA8971ED01B17

Год выпуска: 2013
Продолжительность: 00:38:33
Треклист:

01. Popcult (02:53)
02. Sill (05:14)
03. Boxxx (03:22)
04. Echory (01:29)
05. 16 (02:06)
06. Vertigo (03:01)
07. Basements (05:15)
08. Mireor (05:39)
09. Coryza I (01:16)
10. Spell Sleep (04:55)
11. Mora (03:23)

-----------------------

DON'T MODIFY THIS FILE

-----------------------

PERFORMER: auCDtect Task Manager, ver. 1.5.1RC6 build 1.5.1.7
Copyright (c) 2008-2010 y-soft. All rights reserved
http://y-soft.org

ANALYZER: auCDtect: CD records authenticity detector, version 0.8.2
Copyright (c) 2004 Oleg Berngardt. All rights reserved.
Copyright (c) 2004 Alexander Djourik. All rights reserved.

FILE: 11. Mora.flac
Size: 17399964 Hash: F3A58EE9A1E169F4F8E7E0EDE677064B Accuracy: -m0
Conclusion: CDDA 100%
Signature: 1AB429E945866D137337FCD9959B24F76AA5480C
FILE: 10. Spell Sleep.flac
Size: 32350074 Hash: 7E965B71240FD9EA5310922056DD9364 Accuracy: -m0
Conclusion: CDDA 100%
Signature: 867421328EBAA808E2B9CB2822F6BE2569CF6274
FILE: 09. Coryza I.flac
Size: 8639809 Hash: E04B8F1FF2A47982C88DFCED6E8776EB Accuracy: -m0
Conclusion: CDDA 99%
Signature: 5765AEFA97A06221F40A72AB739A5BAEB49AE888
FILE: 08. Mireor.flac
Size: 38851150 Hash: 5C21818C7C144BE8E5D419DE20FD08F7 Accuracy: -m0
Conclusion: MPEG 100%
Signature: 85338439CD09C74B2474093095F526F958DE9DD5
FILE: 07. Basements.flac
Size: 34588943 Hash: E74AFCD142CE7B68E64C3F67AD907760 Accuracy: -m0
Conclusion: CDDA 100%
Signature: BBCE2AFBD872B65005672453EA99DEFD548F2FB8
FILE: 06. Vertigo.flac
Size: 15168395 Hash: 4156AD7C763D2953EE7DF09BB65D7EF0 Accuracy: -m0
Conclusion: CDDA 100%
Signature: 5E5D48C5785BC7FF9C9473991C1EAA80B78C1D23
FILE: 05. 16.flac
Size: 14092839 Hash: 27C4BAAE3F051C15EBF4B0487F227375 Accuracy: -m0
Conclusion: CDDA 100%
Signature: F2287EA9DBB5F5D2D9756369A160F33C3BEAC99C
FILE: 04. Echory.flac
Size: 10265148 Hash: 145B3F668A7248357B93DC6E2472D50E Accuracy: -m0
Conclusion: CDDA 100%
Signature: 43ABA97E7A1FA45583C960B97589808D5BEF4588
FILE: 03. Boxxx.flac
Size: 17996731 Hash: 5EE1F6340DA19348CE1A96688A61343C Accuracy: -m0
Conclusion: CDDA 100%
Signature: AE17A53C1C038AB1D9C6663DF9357FC505872A9A
FILE: 02. Sill.flac
Size: 34039661 Hash: F5FEBA3D455186A8E39BD37A2B27FEEC Accuracy: -m0
Conclusion: CDDA 100%
Signature: 091C184F8B94246483AF9CE0C7EA96432BA21A43
FILE: 01. Popcult.flac
Size: 17504547 Hash: EAE49A888D3DD4F7D1258EA7C750C9C4 Accuracy: -m0
Conclusion: CDDA 100%
Signature: 5AEC371ECA8F3EBF4C071D4F1245670C2689C510

Год выпуска: 2013
Продолжительность: 00:29:33
Треклист:

01. Redkosh [Original Version] (03:11)
02. Redkosh [VNDL Remix] (05:01)
03. Redkosh [Shape2 Remix] (03:30)
04. Redkosh [Druc Drac Remix] (09:00)
05. Redkosh [Sonic Area Remix] (04:47)
06. Redkosh [Syndrom Remix] (04:04)

-----------------------

DON'T MODIFY THIS FILE

-----------------------

PERFORMER: auCDtect Task Manager, ver. 1.5.1RC6 build 1.5.1.7
Copyright (c) 2008-2010 y-soft. All rights reserved
http://y-soft.org

ANALYZER: auCDtect: CD records authenticity detector, version 0.8.2
Copyright (c) 2004 Oleg Berngardt. All rights reserved.
Copyright (c) 2004 Alexander Djourik. All rights reserved.

FILE: 06. Redkosh [Syndrôm Remix].flac
Size: 23391202 Hash: A67F356C3516556AE2C1D920F4521BE1 Accuracy: -m0
Conclusion: CDDA 99%
Signature: C8AAC383DEC8D2BB3A0207922C24A34E3E2F5373
FILE: 05. Redkosh [Sonic Area Remix].flac
Size: 30589674 Hash: 0364724BF0988ED66AA8CE5A47AC751B Accuracy: -m0
Conclusion: CDDA 100%
Signature: 1D5AC5367733C6A88A6F0C5457D07A40456251AD
FILE: 04. Redkosh [Druc Drac Remix].flac
Size: 56194973 Hash: E090D719BF16FF1882DF5624F059489B Accuracy: -m0
Conclusion: CDDA 94%
Signature: F676910F32F81836D06CAF12F17CF8B08B8BA723
FILE: 03. Redkosh [Shape2 Remix].flac
Size: 22279523 Hash: 722FD949581FB3FE9DF16CC5EF43D8FC Accuracy: -m0
Conclusion: CDDA 99%
Signature: 9CCD7BF28E049757D085DB20863452A137F25DEF
FILE: 02. Redkosh [VNDL Remix].flac
Size: 27055634 Hash: F80C805C45FA68B96E3F04733C13994A Accuracy: -m0
Conclusion: CDDA 100%
Signature: E2827C1791213111A8F118CE7C2498707708766B
FILE: 01. Redkosh [Original Version].flac
Size: 15817444 Hash: 4160B23929B009B3E6DF61820589EFBD Accuracy: -m0
Conclusion: CDDA 99%
Signature: 0F85B3D5FE40908CC39D3A458263DD9CC84A9774

Год выпуска: 2014
Продолжительность: 00:38:59
Треклист:

01. Fake Cadillac (01:31)
02. Gove Me Live (02:40)
03. Tame (02:49)
04. Canon (03:17)
05. Cru (03:16)
06. St Fernand (01:04)
07. Rush (06:10)
08. Bluff Mirage (03:04)
09. Dynasty Beef (01:24)
10. La Mort Du Puzzle (02:56)
11. Crame Creme Chrome (03:09)
12. Desire (05:29)
13. Bleuettomane (02:10)

-----------------------

DON'T MODIFY THIS FILE

-----------------------

PERFORMER: auCDtect Task Manager, ver. 1.5.1RC6 build 1.5.1.7
Copyright (c) 2008-2010 y-soft. All rights reserved
http://y-soft.org

ANALYZER: auCDtect: CD records authenticity detector, version 0.8.2
Copyright (c) 2004 Oleg Berngardt. All rights reserved.
Copyright (c) 2004 Alexander Djourik. All rights reserved.

FILE: 13. Bleuettomane.flac
Size: 10263772 Hash: 0DE183FDA7C3A90880B81886ACB42B32 Accuracy: -m0
Conclusion: CDDA 62%
Signature: 1815FA567C434501B3ADBE35E0B1B446D9132DD0
FILE: 12. Desire.flac
Size: 25791717 Hash: D831D3D85B73BAD071EBBB19D3F481F0 Accuracy: -m0
Conclusion: CDDA 49%
Signature: 58A73A32B0B980AB72A04DF2DE7E9E45D51FFA5A
FILE: 11. Crame Crème Chrome.flac
Size: 15806590 Hash: E1242C097842C7577CC9CA7EB4CD26EF Accuracy: -m0
Conclusion: CDDA 86%
Signature: 556E26C05CC88BF53B29DD89002BD53B625B2596
FILE: 10. La Mort Du Puzzle.flac
Size: 14377522 Hash: 9A6B39A0D1F91A973F06408515F64CAB Accuracy: -m0
Conclusion: CDDA 100%
Signature: 528E8C72B50C0D6EF48F9B0EA77D9C2A17AA253F
FILE: 09. Dynasty Beef.flac
Size: 9689257 Hash: 4018DA3FB56BEF88A4DE24FA153D76D5 Accuracy: -m0
Conclusion: CDDA 100%
Signature: 3497AE88FCF476005D8CE05CE415D0DFE82AE011
FILE: 08. Bluff Mirage.flac
Size: 15666551 Hash: DB2498D0A70B8CDE97DC05B64DC94CF4 Accuracy: -m0
Conclusion: CDDA 85%
Signature: FD1373FA9FE3FC352FB0D7F06370F3058CF4C109
FILE: 07. Rush.flac
Size: 35638349 Hash: DC81C5CF0B16C598E34444F979942977 Accuracy: -m0
Conclusion: CDDA 100%
Signature: 5B4CB0E3A4B8EB42E242F5D0B9C00FB0C9FBCC59
FILE: 06. St Fernand.flac
Size: 3550891 Hash: 34C86A36E548BEA7EB04B670D222CE19 Accuracy: -m0
Conclusion: CDDA 100%
Signature: DD9B99765833DF95DD09924C16E710D5E86058A8
FILE: 05. Cru.flac
Size: 22850817 Hash: B06CEC079B4F99A77D2B8E2250B75DC9 Accuracy: -m0
Conclusion: CDDA 99%
Signature: 7E00AAEFA678CB762C8620678FFDC27202044B1D
FILE: 04. Canon.flac
Size: 17017119 Hash: 984575470A87D16EDB03B9BBF62D529E Accuracy: -m0
Conclusion: CDDA 43%
Signature: B717848D6C78572B52A4E1CAE34826FB072ED5AF
FILE: 03. Tame.flac
Size: 16294745 Hash: 0BA59DED5213AEAB178666E1074779A8 Accuracy: -m0
Conclusion: CDDA 100%
Signature: 4732D47C45C47612E4D9FC9C18315D473D145467
FILE: 02. Gove Me Live.flac
Size: 14907633 Hash: 0930BDB43AE869C8B23D952F1AEA3A03 Accuracy: -m0
Conclusion: CDDA 100%
Signature: FC21ADEE319B06D8112E6AD22A0A39666832D690
FILE: 01. Fake Cadillac.flac
Size: 6858878 Hash: 966DB2296DF053CA8278144E7F390DFE Accuracy: -m0
Conclusion: CDDA 43%
Signature: D2B4A5EDC66054EB31F0144F765B8874ED7CF6AC

Год выпуска: 2016
Продолжительность: 00:35:23
Треклист:

01. Fake Geometrie (02:11)
02. Rabbits (05:21)
03. Ay Sun (06:23)
04. Ole (02:35)
05. Etude (04:45)
06. Rules (04:34)
07. Amor Amor (05:25)
08. Woody Echoes (04:09)

-----------------------

DON'T MODIFY THIS FILE

-----------------------

PERFORMER: auCDtect Task Manager, ver. 1.5.1RC6 build 1.5.1.7
Copyright (c) 2008-2010 y-soft. All rights reserved
http://y-soft.org

ANALYZER: auCDtect: CD records authenticity detector, version 0.8.2
Copyright (c) 2004 Oleg Berngardt. All rights reserved.
Copyright (c) 2004 Alexander Djourik. All rights reserved.

FILE: 02. Rabbits.flac
Size: 33771747 Hash: A5A801A3AD7FB30370CB0513E4B0D964 Accuracy: -m0
Conclusion: MPEG 79%
Signature: C499CC79547986867567BC541DE60087E09D4117
FILE: 01. Fake Geometrie.flac
Size: 12221773 Hash: 6CD4B8D3C27D82A171B04A523313333F Accuracy: -m0
Conclusion: CDDA 94%
Signature: 40F7EB5223246A61C370741617F4BAB5129970D5
FILE: 08. Woody Echoes.flac
Size: 23295228 Hash: C42FA51CE7B96767061BCC996252B843 Accuracy: -m0
Conclusion: CDDA 100%
Signature: 59E818D357DC7EDD32C666721C6918A711875DC8
FILE: 07. Amor Amor.flac
Size: 25661111 Hash: B567F0457EB3706D4F986346C6E4A6E7 Accuracy: -m0
Conclusion: CDDA 100%
Signature: 2BD882F8ED8B6F542913FEBF39FA5D044F9C7407
FILE: 06. Rules.flac
Size: 26334313 Hash: BFDB1C174C8A879802D931D00F1B9343 Accuracy: -m0
Conclusion: CDDA 100%
Signature: 8BA2E0BE2380F2C723A4AA8D307C563F2B66B6A2
FILE: 05. Etude.flac
Size: 27634021 Hash: 56B7970E2B4D82E4886EA1F91549E198 Accuracy: -m0
Conclusion: CDDA 99%
Signature: 153FC2FD4E6C2C9F77CDABDDE42FF4D1F9B8FD83
FILE: 04. Ole.flac
Size: 11435155 Hash: 16BC6B7E53DE7FEEC03AF5D335A04573 Accuracy: -m0
Conclusion: CDDA 100%
Signature: 2DEDCD1BE98916F92E78E5555173D67AA9BD7D74
FILE: 03. Ay Sun.flac
Size: 43847760 Hash: 7FEC4727EB11AB773DADD25A5B4F28BD Accuracy: -m0
Conclusion: CDDA 100%
Signature: FE97C82A5609B77D856CC3E5C16F5ABBF1F6CD34

Время раздачи: 12/7
[NNMClub.to]_Nebulo FLAC.torrent
 Торрент: Бронзовая раздача  Зарегистрирован
 
Примагнититься
Free Leech
Зарегистрируйтесь и скачайте торрент!
19,2 KB
 Зарегистрирован:   28 Авг 2016 14:03:00
 Размер:   2,07 GB  (
 Рейтинг:    (Голосов: 5)
 Поблагодарили:   17
 Проверка:   Оформление проверено модератором 28 Авг 2016 14:04:01
Как cкачать  ·  Как раздать  ·  Правильно оформить  ·  Поднять ратио!  
Показать сообщения:   
Начать новую тему   Ответить на тему    Торрент-трекер NNM-Club -> Electronic -> IDM (Lossless) Часовой пояс: GMT + 3
Страница 1 из 1