Интеллигентный торрент-трекер
canvas not supported
Нас вместе: 4 301 411

Первый мститель: Противостояние / Captain America: Civil War (2016) BDRip [H.264/1080p] [EN / EN Sub]


 
 
RSS
Начать новую тему   Ответить на тему    Торрент-трекер NNM-Club -> Зарубежное кино -> Фильмы в оригинале (HD)
Автор Сообщение
smaster67 ®
Модератор Видео
Покровитель талантов Uploader 300+
Стаж: 7 лет 8 мес.
Сообщений: 6582
Ratio: 192,193
Поблагодарили: 189591
100%
Первый мститель: Противостояние / Captain America: Civil War (2016) BDRip [H.264/1080p] [EN / EN Sub]

Производство: США, Германия
Жанр: фантастика, боевик, приключения

Режиссер: Энтони Руссо , Джо Руссо
Актеры: Крис Эванс, Роберт Дауни мл., Скарлетт Йоханссон, Себастьян Стэн, Энтони Маки, Дон Чидл, Джереми Реннер, Чедвик Боузман, Пол Беттани, Элизабет Олсен, Пол Радд, Эмили ВанКэмп

Описание:
Мстители под руководством Капитана Америки оказываются участниками разрушительного инцидента, имеющего международный масштаб. Эти события заставляют правительство задуматься над тем, чтобы начать регулировать действия всех людей с особыми способностями, введя «Акт о регистрации супергероев», вынуждая их подчиняться ООН.
Видя в этом договоре нарушение гражданских прав и плевок на всё, во что он верит, Стив Роджерс открыто восстаёт против нового режима, ведя за собой группу героев, поддерживающих его мнение. В свою очередь, Тони Старк видит смысл в новом договоре и становится во главе героев, поддерживающих его. Всё это приводит к неизбежному расколу Мстителей и войне между сторонами. Сражаясь друг с другом, Старк и Роджерс не знают о том, что таинственный Барон Земо уже строит свои собственные планы, воспользовавшись расколом величайших героев Земли.



Продолжительность: 02:27:41
Качество видео: BDRip
Перевод: Отсутствует
Язык озвучки: Английский
Язык субтитров: английский
Вид субтитров: вшитые

Видео: AVC, 1920x808 (2.40:1), 9086 kbps, 23,976 fps, 0,244 bpp
Аудио: английский / DTS / 5.1 / 48 kHz / 1509 kbps / 24 bit
Код:
General
Unique ID                                : 0 (0x0)
Complete name                           Captain.America.Civil.War.2016.1080p.mkv
Format                                   : Matroska
Format version                           : Version 4 / Version 2
File size                                : 10.9 GiB
Duration                                 : 2 h 27 min
Overall bit rate                         : 10.6 Mb/s
Encoded date                             : UTC 2010-02-22 21:41:29
Writing application                      : no_variable_data
Writing library                          : no_variable_data

Video
ID                                       : 1
Format                                   : AVC
Format/Info                              : Advanced Video Codec
Format profile                           : High@L4.1
Format settings, CABAC                   : Yes
Format settings, ReFrames                : 5 frames
Codec ID                                 : V_MPEG4/ISO/AVC
Duration                                 : 2 h 27 min
Bit rate                                 : 9 086 kb/s
Width                                    : 1 920 pixels
Height                                   : 808 pixels
Display aspect ratio                     : 2.40:1
Frame rate mode                          : Constant
Frame rate                               : 23.976 (24000/1001) FPS
Color space                              : YUV
Chroma subsampling                       : 4:2:0
Bit depth                                : 8 bits
Scan type                                : Progressive
Bits/(Pixel*Frame)                       : 0.244
Stream size                              : 9.16 GiB (84%)
Writing library                          : x264 core 148 r2705 3f5ed56
Encoding settings                        : cabac=1 / ref=5 / deblock=1:-3:-3 / analyse=0x3:0x113 / me=umh / subme=8 / psy=1 / psy_rd=1.00:0.00 / mixed_ref=1 / me_range=16 / chroma_me=1 / trellis=1 / 8x8dct=1 / cqm=0 / deadzone=21,11 / fast_pskip=1 / chroma_qp_offset=-2 / threads=24 / lookahead_threads=4 / sliced_threads=0 / nr=0 / decimate=1 / interlaced=0 / bluray_compat=0 / constrained_intra=0 / bframes=3 / b_pyramid=2 / b_adapt=2 / b_bias=0 / direct=3 / weightb=1 / open_gop=0 / weightp=2 / keyint=240 / keyint_min=24 / scenecut=40 / intra_refresh=0 / rc_lookahead=50 / rc=2pass / mbtree=1 / bitrate=9086 / ratetol=1.0 / qcomp=0.60 / qpmin=0 / qpmax=69 / qpstep=4 / cplxblur=20.0 / qblur=0.5 / ip_ratio=1.40 / aq=3:0.80
Default                                  : Yes
Forced                                   : No
Statistics Tags Issue                    : no_variable_data 1970-01-01 00:00:00 / no_variable_data 2010-02-22 21:41:29
FromStats_BitRate                        : 9085461
FromStats_Duration                       : 02:27:41.937000000
FromStats_FrameCount                     : 212474
FromStats_StreamSize                     : 10064348450

Audio
ID                                       : 2
Format                                   : DTS
Format/Info                              : Digital Theater Systems
Mode                                     : 16
Format settings, Endianness              : Big
Codec ID                                 : A_DTS
Duration                                 : 2 h 27 min
Bit rate mode                            : Constant
Bit rate                                 : 1 509 kb/s
Channel(s)                               : 6 channels
Channel positions                        : Front: L C R, Side: L R, LFE
Sampling rate                            : 48.0 kHz
Frame rate                               : 93.750 FPS (512 spf)
Bit depth                                : 24 bits
Compression mode                         : Lossy
Stream size                              : 1.56 GiB (14%)
Language                                 : English
Default                                  : Yes
Forced                                   : No
Statistics Tags Issue                    : no_variable_data 1970-01-01 00:00:00 / no_variable_data 2010-02-22 21:41:29
FromStats_BitRate                        : 1508999
FromStats_Duration                       : 02:27:41.942000000
FromStats_FrameCount                     : 830807
FromStats_StreamSize                     : 1671583684

Text #1
ID                                       : 3
Format                                   : UTF-8
Codec ID                                 : S_TEXT/UTF8
Codec ID/Info                            : UTF-8 Plain Text
Title                                    : Forced
Language                                 : English
Default                                  : Yes
Forced                                   : Yes
Statistics Tags Issue                    : no_variable_data 1970-01-01 00:00:00 / no_variable_data 2010-02-22 21:41:29
FromStats_BitRate                        : 1
FromStats_Duration                       : 01:44:48.449000000
FromStats_FrameCount                     : 59
FromStats_StreamSize                     : 1184

Text #2
ID                                       : 4
Format                                   : UTF-8
Codec ID                                 : S_TEXT/UTF8
Codec ID/Info                            : UTF-8 Plain Text
Language                                 : English
Default                                  : No
Forced                                   : No
Statistics Tags Issue                    : no_variable_data 1970-01-01 00:00:00 / no_variable_data 2010-02-22 21:41:29
FromStats_BitRate                        : 50
FromStats_Duration                       : 02:25:59.710000000
FromStats_FrameCount                     : 1865
FromStats_StreamSize                     : 55539

Text #3
ID                                       : 5
Format                                   : UTF-8
Codec ID                                 : S_TEXT/UTF8
Codec ID/Info                            : UTF-8 Plain Text
Title                                    : SDH
Language                                 : English
Default                                  : No
Forced                                   : No
Statistics Tags Issue                    : no_variable_data 1970-01-01 00:00:00 / no_variable_data 2010-02-22 21:41:29
FromStats_BitRate                        : 55
FromStats_Duration                       : 02:26:16.684000000
FromStats_FrameCount                     : 2105
FromStats_StreamSize                     : 60520

Menu
00:00:00.000                             : en:00:00:00.000
00:09:01.958                             : en:00:09:01.958
00:13:04.993                             : en:00:13:04.993
00:21:03.345                             : en:00:21:03.345
00:27:53.380                             : en:00:27:53.380
00:31:57.290                             : en:00:31:57.290
00:35:08.398                             : en:00:35:08.398
00:42:58.451                             : en:00:42:58.451
00:52:04.621                             : en:00:52:04.621
01:05:39.102                             : en:01:05:39.102
01:16:41.639                             : en:01:16:41.639
01:22:28.777                             : en:01:22:28.777
01:29:29.489                             : en:01:29:29.489
01:34:09.769                             : en:01:34:09.769
01:45:38.582                             : en:01:45:38.582
01:55:54.322                             : en:01:55:54.322
02:02:35.056                             : en:02:02:35.056
02:12:14.176                             : en:02:12:14.176
02:18:29.384                             : en:02:18:29.384

Скриншоты:



Время раздачи: с 13:00 до 23:00
[NNMClub.to]_Captain.America.Civil.War.2016.1080p.mkv.torrent
 Торрент: Золотая раздача  Зарегистрирован
 
Примагнититься
Free Leech
Зарегистрируйтесь и скачайте торрент!
54,9 KB
 Зарегистрирован:   29 Авг 2016 14:34:04
 Размер:   10,9 GB  (
 Рейтинг:   4,5 (Голосов: 11)
 Поблагодарили:   56
 Проверка:   Оформление проверено модератором 29 Авг 2016 14:34:56
Как cкачать  ·  Как раздать  ·  Правильно оформить  ·  Поднять ратио!  
alexb​alamy​t​
Стаж: 6 лет 8 мес.
Сообщений: 49
Ratio: 4,497
0.3%
исходник когда будет ?
Показать сообщения:   
Начать новую тему   Ответить на тему    Торрент-трекер NNM-Club -> Зарубежное кино -> Фильмы в оригинале (HD) Часовой пояс: GMT + 3
Страница 1 из 1