Интеллигентный торрент-трекер
canvas not supported
Нас вместе: 4 305 624

Равнины Меркурия / Mercury Plains (2016) BDRip [H.264/1080p] [EN]


 
 
RSS
Начать новую тему   Ответить на тему    Торрент-трекер NNM-Club -> Зарубежное кино -> Фильмы в оригинале (HD)
Автор Сообщение
smaster67 ®
Модератор Видео
Покровитель талантов Uploader 300+
Стаж: 7 лет 8 мес.
Сообщений: 6589
Ratio: 192,609
Поблагодарили: 189924
100%
Равнины Меркурия / Mercury Plains (2016) BDRip [H.264/1080p] [EN]

Производство: США
Жанр: боевик, драма, приключения

Режиссер: Чарльз Бурмейстер
Актеры: Скотт Иствуд, Анджела Сарафян, Ник Чинланд, Джастин Арнольд, Энди Гарсиа, Маргарет Энн Гарза, Майк Гассэвей, Джо Гонзалес, Бринли Грэйс, Марк Хэнсон, Хорхе А. Хименес, Карина Джанкер

Описание:
Столкнувшись с мрачным будущим, молодой человек сбегает в Мексику. Там он оказывается вовлечен в военизированную группу подростков, которые борются с картелями.



Продолжительность: 01:42:06
Качество видео: BDRip
Перевод: Отсутствует
Язык озвучки: Английский

Видео: AVC, 1920x816 (2.35:1), 9190 kbps, 23,976 fps, 0,245 bpp
Аудио: Английский / DTS / 5.1 / 48 kHz / 1509 kbps / 16 bit
Код:
General
Unique ID                             Mercury Plains.1080p.mkv
Format                                   : Matroska
Format version                           : Version 4 / Version 2
File size                                : 7.63 GiB
Duration                                 : 1 h 42 min
Overall bit rate                         : 10.7 Mb/s
Encoded date                             : UTC 2016-08-15 09:29:57
Writing application                      : mkvmerge v8.5.0 ('Vanishing Act') 64bit
Writing library                          : libebml v1.3.1 + libmatroska v1.4.2

Video
ID                                       : 1
Format                                   : AVC
Format/Info                              : Advanced Video Codec
Format profile                           : High@L4.1
Format settings, CABAC                   : Yes
Format settings, ReFrames                : 5 frames
Codec ID                                 : V_MPEG4/ISO/AVC
Duration                                 : 1 h 42 min
Bit rate                                 : 9 190 kb/s
Width                                    : 1 920 pixels
Height                                   : 816 pixels
Display aspect ratio                     : 2.35:1
Frame rate mode                          : Constant
Frame rate                               : 23.976 FPS
Color space                              : YUV
Chroma subsampling                       : 4:2:0
Bit depth                                : 8 bits
Scan type                                : Progressive
Bits/(Pixel*Frame)                       : 0.245
Stream size                              : 6.55 GiB (86%)
Writing library                          : x264 core 148 r2705 3f5ed56
Encoding settings                        : cabac=1 / ref=5 / deblock=1:0:0 / analyse=0x3:0x133 / me=umh / subme=8 / psy=1 / psy_rd=1.00:0.00 / mixed_ref=1 / me_range=16 / chroma_me=1 / trellis=1 / 8x8dct=1 / cqm=0 / deadzone=21,11 / fast_pskip=0 / chroma_qp_offset=-2 / threads=12 / lookahead_threads=2 / sliced_threads=0 / nr=0 / decimate=1 / interlaced=0 / bluray_compat=0 / constrained_intra=0 / bframes=3 / b_pyramid=2 / b_adapt=1 / b_bias=0 / direct=1 / weightb=1 / open_gop=0 / weightp=2 / keyint=250 / keyint_min=23 / scenecut=40 / intra_refresh=0 / rc_lookahead=40 / rc=2pass / mbtree=1 / bitrate=9190 / ratetol=1.0 / qcomp=0.60 / qpmin=0 / qpmax=69 / qpstep=4 / cplxblur=20.0 / qblur=0.5 / ip_ratio=1.40 / aq=1:1.00
Language                                 : English
Default                                  : Yes
Forced                                   : No

Audio
ID                                       : 2
Format                                   : DTS
Format/Info                              : Digital Theater Systems
Mode                                     : 16
Format settings, Endianness              : Big
Codec ID                                 : A_DTS
Duration                                 : 1 h 42 min
Bit rate mode                            : Constant
Bit rate                                 : 1 509 kb/s
Channel(s)                               : 6 channels
Channel positions                        : Front: L C R, Side: L R, LFE
Sampling rate                            : 48.0 kHz
Frame rate                               : 93.750 FPS (512 spf)
Bit depth                                : 16 bits
Compression mode                         : Lossy
Stream size                              : 1.08 GiB (14%)
Default                                  : Yes
Forced                                   : No

Скриншоты:



Время раздачи: с 13:00 до 23:00
[NNMClub.to]_Mercury Plains.1080p.mkv.torrent
 Торрент: Золотая раздача  Зарегистрирован
 
Примагнититься
Free Leech
Зарегистрируйтесь и скачайте торрент!
38,3 KB
 Зарегистрирован:   29 Авг 2016 19:19:33
 Размер:   7,63 GB  (
 Рейтинг:    (Голосов: 4)
 Поблагодарили:   25
 Проверка:   Оформление проверено модератором 29 Авг 2016 19:19:59
Как cкачать  ·  Как раздать  ·  Правильно оформить  ·  Поднять ратио!  
Показать сообщения:   
Начать новую тему   Ответить на тему    Торрент-трекер NNM-Club -> Зарубежное кино -> Фильмы в оригинале (HD) Часовой пояс: GMT + 3
Страница 1 из 1