Интеллигентный торрент-трекер
canvas not supported
Нас вместе: 4 301 602

Сентябрь в Ширазе / Septembers of Shiraz (2015) BDRemux [H.264/1080p] [EN / EN, Fr Sub]


 
 
RSS
Начать новую тему   Ответить на тему    Торрент-трекер NNM-Club -> Зарубежное кино -> Фильмы в оригинале (HD)
Автор Сообщение
smaster67 ®
Модератор Видео
Покровитель талантов Uploader 300+
Стаж: 7 лет 8 мес.
Сообщений: 6583
Ratio: 192,202
Поблагодарили: 189627
100%
Сентябрь в Ширазе / Septembers of Shiraz (2015) BDRemux [H.264/1080p] [EN / EN, Fr Sub]

Производство: США
Жанр: триллер

Режиссер: Уэйн Блэр
Актеры: Шоре Агдашлу, Сальма Хайек, Эдриан Броуди, Габриэлла Райт, Алон Абутбул, Энтони Азизи, Башар Рахаль, Бен Юсеф, Нассер Мемарзиа, Джэми Уорд, Армин Амири

Описание:
Действие картины разворачивается во время иранской революции 1979 года. Главный герой - богатый еврейский ювелир. В ходе отрицания прозападного образа жизни, власти страны обвинили его в шпионаже и заключили в тюрьму. Подкупив охрану и выйдя на свободу, он вместе с семьей решает бежать из страны.



Продолжительность: 01:50:06
Качество видео: BDRemux
Перевод: Отсутствует
Язык озвучки: Английский
Язык субтитров: английский, французский
Вид субтитров: Вшитые

Видео: AVC, 1920x1080 (16:9), 28585 kbps, 23,976 fps, 0,575 bpp
Аудио: TrueHD / 5.1 / 48 kHz / 3179 kbps /
Код:
General
Unique ID           Septembers.of.Shiraz.2015.REMUX.1080p.BluRay.AVC.TrueHD.5.1-iFT\Septembers.of.Shiraz.2015.REMUX.1080p.BluRay.AVC.TrueHD.5.1-iFT.mkv
Format                                   : Matroska
Format version                           : Version 4 / Version 2
File size                                : 24.5 GiB
Duration                                 : 1 h 50 min
Overall bit rate mode                    : Variable
Overall bit rate                         : 31.9 Mb/s
Encoded date                             : UTC 2016-08-29 17:41:45
Writing application                      : mkvmerge v8.9.0 ('Father Daughter') 64bit
Writing library                          : libebml v1.3.3 + libmatroska v1.4.4

Video
ID                                       : 1
Format                                   : AVC
Format/Info                              : Advanced Video Codec
Format profile                           : High@L4.1
Format settings, CABAC                   : Yes
Format settings, ReFrames                : 4 frames
Codec ID                                 : V_MPEG4/ISO/AVC
Duration                                 : 1 h 50 min
Bit rate mode                            : Variable
Bit rate                                 : 28.6 Mb/s
Maximum bit rate                         : 35.0 Mb/s
Width                                    : 1 920 pixels
Height                                   : 1 080 pixels
Display aspect ratio                     : 16:9
Frame rate mode                          : Constant
Frame rate                               : 23.976 (24000/1001) FPS
Standard                                 : NTSC
Color space                              : YUV
Chroma subsampling                       : 4:2:0
Bit depth                                : 8 bits
Scan type                                : Progressive
Bits/(Pixel*Frame)                       : 0.575
Stream size                              : 22.0 GiB (90%)
Default                                  : Yes
Forced                                   : No
Color range                              : Limited
Color primaries                          : BT.709
Transfer characteristics                 : BT.709
Matrix coefficients                      : BT.709

Audio
ID                                       : 2
Format                                   : TrueHD
Codec ID                                 : A_TRUEHD
Duration                                 : 1 h 50 min
Bit rate mode                            : Variable
Bit rate                                 : 3 179 kb/s
Maximum bit rate                         : 4 422 kb/s
Channel(s)                               : 6 channels
Channel positions                        : Front: L C R, Side: L R, LFE
Sampling rate                            : 48.0 kHz
Frame rate                               : 1 200.000 FPS (40 spf)
Compression mode                         : Lossless
Stream size                              : 2.45 GiB (10%)
Default                                  : Yes
Forced                                   : No

Text #1
ID                                       : 3
Format                                   : PGS
Muxing mode                              : zlib
Codec ID                                 : S_HDMV/PGS
Codec ID/Info                            : Picture based subtitle format used on BDs/HD-DVDs
Duration                                 : 1 h 42 min
Bit rate                                 : 10.4 kb/s
Count of elements                        : 1440
Stream size                              : 7.59 MiB (0%)
Default                                  : Yes
Forced                                   : No

Text #2
ID                                       : 4
Format                                   : PGS
Muxing mode                              : zlib
Codec ID                                 : S_HDMV/PGS
Codec ID/Info                            : Picture based subtitle format used on BDs/HD-DVDs
Duration                                 : 8 s 92 ms
Bit rate                                 : 9 147 b/s
Count of elements                        : 2
Stream size                              : 9.04 KiB (0%)
Default                                  : No
Forced                                   : No

Text #3
ID                                       : 5
Format                                   : PGS
Muxing mode                              : zlib
Codec ID                                 : S_HDMV/PGS
Codec ID/Info                            : Picture based subtitle format used on BDs/HD-DVDs
Duration                                 : 1 h 43 min
Bit rate                                 : 11.4 kb/s
Count of elements                        : 1810
Stream size                              : 8.41 MiB (0%)
Default                                  : No
Forced                                   : No

Text #4
ID                                       : 6
Format                                   : PGS
Muxing mode                              : zlib
Codec ID                                 : S_HDMV/PGS
Codec ID/Info                            : Picture based subtitle format used on BDs/HD-DVDs
Duration                                 : 1 h 43 min
Bit rate                                 : 84 b/s
Count of elements                        : 17
Stream size                              : 63.5 KiB (0%)
Default                                  : No
Forced                                   : No

Menu
00:00:00.000                             : en:Chapter 01
00:19:48.645                             : en:Chapter 02
00:38:15.459                             : en:Chapter 03
00:49:45.941                             : en:Chapter 04
01:03:38.856                             : en:Chapter 05
01:21:16.204                             : en:Chapter 06
01:32:49.272                             : en:Chapter 07
01:43:16.523                             : en:Chapter 08
01:50:06.725                             : en:Chapter 09

Скриншоты:



Время раздачи: с 13:00 до 23:00
[NNMClub.to]_Septembers.of.Shiraz.2015.REMUX.1080p.BluRay.AVC.TrueHD.5.1-iFT.mkv.torrent
 Торрент: Золотая раздача  Зарегистрирован
 
Примагнититься
Free Leech
Зарегистрируйтесь и скачайте торрент!
123 KB
 Зарегистрирован:   29 Авг 2016 22:47:59
 Размер:   24,5 GB  (
 Рейтинг:    (Голосов: 8)
 Поблагодарили:   42
 Проверка:   Оформление проверено модератором 29 Авг 2016 22:49:18
Как cкачать  ·  Как раздать  ·  Правильно оформить  ·  Поднять ратио!  
Cyber​netic​83​
Стаж: 5 лет 10 мес.
Сообщений: 194
Ratio: 4,09
54.11%
И как?
necromanc
Стаж: 7 лет 4 мес.
Сообщений: 900
Ratio: 17,692
100%
ussr.gif
познавательно насчет исламской революции в Иране
Показать сообщения:   
Начать новую тему   Ответить на тему    Торрент-трекер NNM-Club -> Зарубежное кино -> Фильмы в оригинале (HD) Часовой пояс: GMT + 3
Страница 1 из 1