Интеллигентный торрент-трекер
canvas not supported
Нас вместе: 4 348 322

Заклятие 2 / The Conjuring 2 (2016) BDRemux [H.264/1080p] [EN / EN, Fr, Sp, Po Sub]


 
 
RSS
Начать новую тему   Ответить на тему    Торрент-трекер NNM-Club -> Зарубежное кино -> Фильмы в оригинале (HD)
Автор Сообщение
smaster67 ®
Модератор Видео
Покровитель талантов Uploader 300+
Стаж: 7 лет 10 мес.
Сообщений: 6630
Ratio: 198,855
Поблагодарили: 192433
100%
Заклятие 2 / The Conjuring 2 (2016) BDRemux [H.264/1080p] [EN / EN, Fr, Sp, Po Sub]

Производство: США, Канада
Жанр: ужасы, триллер, детектив

Режиссер: Джеймс Ван
Актеры: Патрик Уилсон, Вера Фармига, Мэдисон Вульф, Фрэнсис О’Коннор, Лорен Эспозито, Бенжамин Хэй, Патрик МакОли, Саймон МакБерни, Мария Дойл Кеннеди, Саймон Делани, Франка Потенте, Боб Адриан

Описание:
Фильм основан на случае, с которым столкнулись практикующие исследователи паранормальных явлений Эд и Лоррэйн Уоррены. На этот раз вызов будет из северного пригорода Лондона, где семья, состоящая из четырех детей и матери-одиночки, подвергается нападениям потусторонних сил. Супругам предстоит выяснить, какова природа этих явлений, полтергейст ли это, или что-то другое, и главное - почему именно этот дом и именно эта семья.



Продолжительность: 02:13:52
Качество видео: BDRemux
Перевод: Отсутствует
Язык озвучки: Английский
Язык субтитров: английский, французский, португальский, испанский
Вид субтитров: Вшитые

Видео: AVC, 1920x1080 (16:9), 22539 kbps, 23,976 fps, 0,453 bpp
Аудио №1: английский / Atmos / TrueHD / 3987 kbps / 8 channels
Аудио №2: английский / AC3 / 5.1 / 48 kHz / 640 kbps /
Код:
General
Unique ID                             The Conjuring 2 2016 1080p Blu-ray Remux AVC Atmos - KRaLiMaRKo\The Conjuring 2 2016 1080p Blu-ray Remux AVC Atmos - KRaLiMaRKo.mkv
Format                                   : Matroska
Format version                           : Version 4 / Version 2
File size                                : 25.6 GiB
Duration                                 : 2 h 13 min
Overall bit rate mode                    : Variable
Overall bit rate                         : 27.3 Mb/s
Movie name                               : The Conjuring 2 2016 1080p Blu-ray Remux AVC Atmos - KRaLiMaRKo
Encoded date                             : UTC 2016-08-29 07:33:18
Writing application                      : mkvmerge v9.3.1 ('Mask Machine') 64bit
Writing library                          : libebml v1.3.4 + libmatroska v1.4.5

Video
ID                                       : 1
Format                                   : AVC
Format/Info                              : Advanced Video Codec
Format profile                           : High@L4.1
Format settings, CABAC                   : Yes
Format settings, ReFrames                : 2 frames
Codec ID                                 : V_MPEG4/ISO/AVC
Duration                                 : 2 h 13 min
Bit rate mode                            : Variable
Bit rate                                 : 22.5 Mb/s
Width                                    : 1 920 pixels
Height                                   : 1 080 pixels
Display aspect ratio                     : 16:9
Frame rate mode                          : Constant
Frame rate                               : 23.976 (24000/1001) FPS
Color space                              : YUV
Chroma subsampling                       : 4:2:0
Bit depth                                : 8 bits
Scan type                                : Progressive
Bits/(Pixel*Frame)                       : 0.453
Stream size                              : 21.1 GiB (82%)
Language                                 : English
Default                                  : Yes
Forced                                   : No

Audio #1
ID                                       : 2
Format                                   : Atmos / TrueHD
Codec ID                                 : A_TRUEHD
Duration                                 : 2 h 13 min
Bit rate mode                            : Variable
Bit rate                                 : 3 987 kb/s
Maximum bit rate                         : 8 076 kb/s
Channel(s)                               : Object Based / 8 channels
Channel positions                        : Object Based / Front: L C R, Side: L R, Back: L R, LFE
Sampling rate                            :  / 48.0 kHz
Frame rate                               : 1 200.000 FPS (40 spf)
Compression mode                         : Lossless
Stream size                              : 3.73 GiB (15%)
Language                                 : English
Default                                  : Yes
Forced                                   : No

Audio #2
ID                                       : 3
Format                                   : AC-3
Format/Info                              : Audio Coding 3
Mode extension                           : CM (complete main)
Format settings, Endianness              : Big
Codec ID                                 : A_AC3
Duration                                 : 2 h 13 min
Bit rate mode                            : Constant
Bit rate                                 : 640 kb/s
Channel(s)                               : 6 channels
Channel positions                        : Front: L C R, Side: L R, LFE
Sampling rate                            : 48.0 kHz
Frame rate                               : 31.250 FPS (1536 spf)
Compression mode                         : Lossy
Stream size                              : 613 MiB (2%)
Language                                 : English
Default                                  : No
Forced                                   : No

Text #1
ID                                       : 4
Format                                   : PGS
Codec ID                                 : S_HDMV/PGS
Codec ID/Info                            : Picture based subtitle format used on BDs/HD-DVDs
Duration                                 : 2 h 13 min
Bit rate                                 : 31.7 kb/s
Count of elements                        : 3486
Stream size                              : 30.2 MiB (0%)
Title                                    : SDH
Language                                 : English
Default                                  : Yes
Forced                                   : No

Text #2
ID                                       : 5
Format                                   : PGS
Codec ID                                 : S_HDMV/PGS
Codec ID/Info                            : Picture based subtitle format used on BDs/HD-DVDs
Duration                                 : 2 h 13 min
Bit rate                                 : 23.4 kb/s
Count of elements                        : 3076
Stream size                              : 22.3 MiB (0%)
Language                                 : French
Default                                  : No
Forced                                   : No

Text #3
ID                                       : 6
Format                                   : PGS
Codec ID                                 : S_HDMV/PGS
Codec ID/Info                            : Picture based subtitle format used on BDs/HD-DVDs
Duration                                 : 2 h 13 min
Bit rate                                 : 24.2 kb/s
Count of elements                        : 2822
Stream size                              : 23.0 MiB (0%)
Title                                    : Brazilian Portuguese
Language                                 : Portuguese
Default                                  : No
Forced                                   : No

Text #4
ID                                       : 7
Format                                   : PGS
Codec ID                                 : S_HDMV/PGS
Codec ID/Info                            : Picture based subtitle format used on BDs/HD-DVDs
Duration                                 : 2 h 13 min
Bit rate                                 : 24.9 kb/s
Count of elements                        : 2816
Stream size                              : 23.7 MiB (0%)
Title                                    : Latin American Spanish
Language                                 : Spanish
Default                                  : No
Forced                                   : No

Menu
00:00:00.000                             : en:00:00:00.000
00:08:24.671                             : en:00:08:24.671
00:18:40.703                             : en:00:18:40.703
00:28:34.212                             : en:00:28:34.212
00:40:01.399                             : en:00:40:01.399
00:48:46.841                             : en:00:48:46.841
01:02:14.314                             : en:01:02:14.314
01:09:29.665                             : en:01:09:29.665
01:21:55.869                             : en:01:21:55.869
01:29:26.486                             : en:01:29:26.486
01:38:53.469                             : en:01:38:53.469
01:48:15.364                             : en:01:48:15.364
02:03:10.508                             : en:02:03:10.508
02:07:36.816                             : en:02:07:36.816

Скриншоты:



Время раздачи: с 13:00 до 23:00
[NNMClub.to]_The Conjuring 2 2016 1080p Blu-ray Remux AVC Atmos - KRaLiMaRKo.mkv.torrent
 Торрент: Платиновая раздача  Зарегистрирован
 
Примагнититься

Скачать
 Зарегистрирован:   30 Авг 2016 12:51:10
 Размер:   25,6 GB  (
 Рейтинг:   4,4 (Голосов: 10)
 Поблагодарили:   51
 Проверка:   Оформление проверено модератором 30 Авг 2016 12:51:45
Как cкачать  ·  Как раздать  ·  Правильно оформить  ·  Поднять ратио!  
Загрузка...
Показать сообщения:   
Начать новую тему   Ответить на тему    Торрент-трекер NNM-Club -> Зарубежное кино -> Фильмы в оригинале (HD) Часовой пояс: GMT + 3
Страница 1 из 1