Интеллигентный торрент-трекер
canvas not supported
Нас вместе: 4 328 656

Любовь и дружба / Love & Friendship (2016) BDRip [H.264/1080p] [EN]


 
 
RSS
Начать новую тему   Ответить на тему    Торрент-трекер NNM-Club -> Зарубежное кино -> Фильмы в оригинале (HD)
Автор Сообщение
smaster67 ®
Модератор Видео
Покровитель талантов Uploader 300+
Стаж: 8 лет
Сообщений: 6671
Ratio: 202,81
Поблагодарили: 194170
100%
Любовь и дружба / Love & Friendship (2016) BDRip [H.264/1080p] [EN]

Производство: Ирландия, Нидерланды, Франция, США, Великобритания
Жанр: драма, мелодрама, комедия

Режиссер: Уит Стиллман
Актеры: Кейт Бекинсейл, Хлоя Севиньи, Завьер Сэмюэл, Морфидд Кларк, Эмма Гринвелл, Джастин Эдвардс, Джеймс Флит, Дженн Мюррэй, Стивен Фрай, Том Беннетт, Лохлэйнн О’Меарайн, Софи Радермахер

Описание:
Прекрасная молодая вдова леди Сьюзан приезжает в имение семьи покойного мужа переждать, пока в высшем обществе перестанут судачить о ее похождениях, и придумать, как поправить свое финансовое положение. Не теряя времени даром, она решает подыскать богатого мужа себе и своей юной дочери. В ход идут не только красота и обаяние, но и острый насмешливый ум и невероятный талант плести интриги.



Продолжительность: 01:33:18
Качество видео: BDRip
Перевод: Отсутствует
Язык озвучки: Английский

Видео: AVC, 1920x1040 (1.85:1), 14102 kbps, 23,976 fps, 0,295 bpp
Аудио: английский / DTS / 5.1 / 48 kHz / 1509 kbps / 24 bit
Код: выделить все
General
Unique ID                           Love.and.Friendship.2016.1080p.Bluray.X264-EVO\Love.and.Friendship.2016.1080p.Bluray.X264-EVO.mkv
Format                                   : Matroska
Format version                           : Version 4 / Version 2
File size                                : 10.1 GiB
Duration                                 : 1 h 33 min
Overall bit rate                         : 15.5 Mb/s
Movie name                               : EVO
Encoded date                             : UTC 2016-08-30 12:37:17
Writing application                      : mkvmerge v6.7.0 ('Back to the Ground') 64bit built on Jan  8 2014 15:10:52
Writing library                          : libebml v1.3.0 + libmatroska v1.4.1

Video
ID                                       : 1
Format                                   : AVC
Format/Info                              : Advanced Video Codec
Format profile                           : High@L4.1
Format settings, CABAC                   : Yes
Format settings, ReFrames                : 4 frames
Codec ID                                 : V_MPEG4/ISO/AVC
Duration                                 : 1 h 33 min
Bit rate                                 : 14.1 Mb/s
Width                                    : 1 920 pixels
Height                                   : 1 040 pixels
Display aspect ratio                     : 1.85:1
Frame rate mode                          : Constant
Frame rate                               : 23.976 (24000/1001) FPS
Color space                              : YUV
Chroma subsampling                       : 4:2:0
Bit depth                                : 8 bits
Scan type                                : Progressive
Bits/(Pixel*Frame)                       : 0.295
Stream size                              : 8.89 GiB (88%)
Writing library                          : x264 core 130 r2273 b3065e6
Encoding settings                        : cabac=1 / ref=1 / deblock=1:0:0 / analyse=0x3:0x113 / me=hex / subme=2 / psy=1 / psy_rd=1.00:0.00 / mixed_ref=0 / me_range=16 / chroma_me=1 / trellis=0 / 8x8dct=1 / cqm=0 / deadzone=21,11 / fast_pskip=1 / chroma_qp_offset=0 / threads=6 / lookahead_threads=2 / sliced_threads=0 / nr=0 / decimate=1 / interlaced=0 / bluray_compat=0 / constrained_intra=0 / bframes=3 / b_pyramid=2 / b_adapt=1 / b_bias=0 / direct=1 / weightb=1 / open_gop=0 / weightp=1 / keyint=240 / keyint_min=24 / scenecut=40 / intra_refresh=0 / rc_lookahead=10 / rc=abr / mbtree=1 / bitrate=14102 / ratetol=1.0 / qcomp=0.60 / qpmin=0 / qpmax=69 / qpstep=4 / vbv_maxrate=62500 / vbv_bufsize=78125 / nal_hrd=none / ip_ratio=1.40 / aq=1:1.00
Language                                 : English
Default                                  : Yes
Forced                                   : No
Color range                              : Limited
Color primaries                          : BT.709
Transfer characteristics                 : BT.709
Matrix coefficients                      : BT.709

Audio
ID                                       : 2
Format                                   : DTS
Format/Info                              : Digital Theater Systems
Mode                                     : 16
Format settings, Endianness              : Big
Codec ID                                 : A_DTS
Duration                                 : 1 h 33 min
Bit rate mode                            : Constant
Bit rate                                 : 1 509 kb/s
Channel(s)                               : 6 channels
Channel positions                        : Front: L C R, Side: L R, LFE
Sampling rate                            : 48.0 kHz
Frame rate                               : 93.750 FPS (512 spf)
Bit depth                                : 24 bits
Compression mode                         : Lossy
Stream size                              : 1 007 MiB (10%)
Language                                 : English
Default                                  : Yes
Forced                                   : No

Menu
00:00:00.000                             : en:Chapter 1
00:06:18.961                             : en:Chapter 2
00:14:33.581                             : en:Chapter 3
00:22:33.685                             : en:Chapter 4
00:29:48.620                             : en:Chapter 5
00:34:52.381                             : en:Chapter 6
00:41:29.236                             : en:Chapter 7
00:47:13.956                             : en:Chapter 8
00:51:01.224                             : en:Chapter 9
00:53:26.745                             : en:Chapter 10
00:59:29.399                             : en:Chapter 11
01:04:45.131                             : en:Chapter 12
01:07:36.761                             : en:Chapter 13
01:13:18.769                             : en:Chapter 14
01:19:51.036                             : en:Chapter 15
01:25:54.482                             : en:Chapter 16

Скриншоты:



Время раздачи: с 13:00 до 23:00
[NNMClub.to]_Love.and.Friendship.2016.1080p.Bluray.X264-EVO.mkv.torrent
 Торрент: Золотая раздача  Зарегистрирован
 
Примагнититься

Зарегистрируйтесь и скачайте торрент!
50,6 KB
 Зарегистрирован:   30 Авг 2016 22:35:19
 Размер:   10,1 GB  (
 Рейтинг:    (Голосов: 4)
 Поблагодарили:   45
 Проверка:   Оформление проверено модератором 30 Авг 2016 22:36:01
Как cкачать  ·  Как раздать  ·  Правильно оформить  ·  Поднять ратио!  
Показать сообщения:   
Начать новую тему   Ответить на тему    Торрент-трекер NNM-Club -> Зарубежное кино -> Фильмы в оригинале (HD) Часовой пояс: GMT + 3
Страница 1 из 1