Интеллигентный торрент-трекер
canvas not supported
Нас вместе: 4 309 635

Призыв / The Call Up (2016) BDRemux [H.264/1080p] [EN / Fr Sub]


 
 
RSS
Начать новую тему   Ответить на тему    Торрент-трекер NNM-Club -> Зарубежное кино -> Фильмы в оригинале (HD)
Автор Сообщение
smaster67 ®
Модератор Видео
Покровитель талантов Uploader 300+
Стаж: 7 лет 8 мес.
Сообщений: 6591
Ratio: 192,959
Поблагодарили: 190154
100%
Призыв / The Call Up (2016) BDRemux [H.264/1080p] [EN / Fr Sub]

Производство: Великобритания
Жанр: фантастика, боевик

Режиссер: Чарльз Баркер
Актеры: Морфидд Кларк, Кристофер Оби, Макс Дикон, Том Бенедикт Найт, Паркер Сойерс, Малкольм Модель, Али Кук, Адриана Рэндолл, Дино Фаззани, Грег Колпакчи, Борис Лер

Описание:
Группа элитных онлайн-игроков получает таинственное приглашение от корпорации Заибатцу, испытать в реальной жизни крутую видеоигру - это мечта, перед которой невозможно устоять. Прибыв на полигон, группа получает высокотехнологичную экипировку и готовится к революционной игре. Но то, что начинается как встреча с мечтой, уникальным и волнующим опытом, быстро превращается в зловещую игру. Как только группа подвергается нападению со стороны вражеских военных, они понимают, что это не игра. Сделаешь ошибку - и ты поплатишься жизнью. Теперь этим мастерам компьютерных игр придется бороться за выживание по-настоящему.



Продолжительность: 01:30:23
Качество видео: BDRemux
Перевод: Отсутствует
Язык озвучки: Английский
Язык субтитров: французский
Вид субтитров: Вшитые

Видео: AVC, 1920x1080 (16:9), 21883 kbps, 24 fps, 0,440 bpp
Аудио: DTS-HD / 5.1 / 48 kHz / 3663 kbps / 24 bit (Core: 5.1 / 48 kHz / 1509 kbps / 24 bit)
Код:
General
Unique ID                         The.Call.Up.2016.REMUX.1080p.BluRay.AVC.DTS-HD.MA5.1-iFT\The.Call.Up.2016.REMUX.1080p.BluRay.AVC.DTS-HD.MA5.1-iFT.mkv
Format                                   : Matroska
Format version                           : Version 4 / Version 2
File size                                : 16.1 GiB
Duration                                 : 1 h 30 min
Overall bit rate mode                    : Variable
Overall bit rate                         : 25.6 Mb/s
Encoded date                             : UTC 2016-08-31 02:01:48
Writing application                      : mkvmerge v9.1.0 ('Little Earthquakes') 64bit
Writing library                          : libebml v1.3.3 + libmatroska v1.4.4

Video
ID                                       : 1
Format                                   : AVC
Format/Info                              : Advanced Video Codec
Format profile                           : High@L4.1
Format settings, CABAC                   : Yes
Format settings, ReFrames                : 4 frames
Codec ID                                 : V_MPEG4/ISO/AVC
Duration                                 : 1 h 30 min
Bit rate mode                            : Variable
Bit rate                                 : 21.9 Mb/s
Maximum bit rate                         : 35.0 Mb/s
Width                                    : 1 920 pixels
Height                                   : 1 080 pixels
Display aspect ratio                     : 16:9
Frame rate mode                          : Constant
Frame rate                               : 24.000 FPS
Standard                                 : NTSC
Color space                              : YUV
Chroma subsampling                       : 4:2:0
Bit depth                                : 8 bits
Scan type                                : Progressive
Bits/(Pixel*Frame)                       : 0.440
Stream size                              : 13.8 GiB (86%)
Default                                  : Yes
Forced                                   : No
Color range                              : Limited
Color primaries                          : BT.709
Transfer characteristics                 : BT.709
Matrix coefficients                      : BT.709

Audio
ID                                       : 2
Format                                   : DTS
Format/Info                              : Digital Theater Systems
Format profile                           : MA / Core
Mode                                     : 16
Format settings, Endianness              : Big
Codec ID                                 : A_DTS
Duration                                 : 1 h 30 min
Bit rate mode                            : Variable / Constant
Bit rate                                 : 3 664 kb/s / 1 509 kb/s
Channel(s)                               : 6 channels
Channel positions                        : Front: L C R, Side: L R, LFE
Sampling rate                            : 48.0 kHz
Frame rate                               : 93.750 FPS (512 spf)
Bit depth                                : 24 bits
Compression mode                         : Lossless / Lossy
Stream size                              : 2.31 GiB (14%)
Default                                  : Yes
Forced                                   : No

Text #1
ID                                       : 3
Format                                   : PGS
Muxing mode                              : zlib
Codec ID                                 : S_HDMV/PGS
Codec ID/Info                            : Picture based subtitle format used on BDs/HD-DVDs
Duration                                 : 1 h 26 min
Bit rate                                 : 7 929 b/s
Count of elements                        : 1894
Stream size                              : 4.91 MiB (0%)
Default                                  : Yes
Forced                                   : No

Text #2
ID                                       : 4
Format                                   : PGS
Muxing mode                              : zlib
Codec ID                                 : S_HDMV/PGS
Codec ID/Info                            : Picture based subtitle format used on BDs/HD-DVDs
Duration                                 : 1 h 19 min
Bit rate                                 : 310 b/s
Count of elements                        : 52
Stream size                              : 181 KiB (0%)
Default                                  : No
Forced                                   : No

Menu
00:00:00.000                             : en:Chapter 01
00:06:34.458                             : en:Chapter 02
00:11:25.458                             : en:Chapter 03
00:17:14.875                             : en:Chapter 04
00:23:28.166                             : en:Chapter 05
00:28:49.958                             : en:Chapter 06
00:34:52.375                             : en:Chapter 07
00:40:06.666                             : en:Chapter 08
00:46:25.166                             : en:Chapter 09
00:52:16.291                             : en:Chapter 10
00:58:01.416                             : en:Chapter 11
01:03:02.916                             : en:Chapter 12
01:09:19.000                             : en:Chapter 13
01:14:23.916                             : en:Chapter 14
01:20:32.208                             : en:Chapter 15
01:26:52.833                             : en:Chapter 16

Скриншоты:



Время раздачи: с 13:00 до 23:00
[NNMClub.to]_The.Call.Up.2016.REMUX.1080p.BluRay.AVC.DTS-HD.MA5.1-iFT.mkv.torrent
 Торрент: Золотая раздача  Зарегистрирован
 
Примагнититься
Free Leech
Зарегистрируйтесь и скачайте торрент!
80,9 KB
 Зарегистрирован:   31 Авг 2016 09:14:34
 Размер:   16,1 GB  (
 Рейтинг:    (Голосов: 9)
 Поблагодарили:   40
 Проверка:   Оформление проверено модератором 31 Авг 2016 09:19:20
Как cкачать  ·  Как раздать  ·  Правильно оформить  ·  Поднять ратио!  
jonny771

Online
Стаж: 9 лет 7 мес.
Сообщений: 42
Ratio: 2,041
Поблагодарили: 157
2.04%
russia.gif
отличная корпорация...

_________________
будете ловить ртом воздух...но вздохнуть не сможете.вздох будет не выносимым.умирать будете медленно,болезненно,мучительно...
Arky007
Стаж: 3 года 5 мес.
Сообщений: 106
Ratio: 1,594
98.76%
kazakhstan.gif
Мда....неслушабельное название у корпорации.
BumpyA
 
Стаж: 7 лет 2 мес.
Сообщений: 117
Ratio: 10,971
100%
russia.gif
На верно "бывшие наши" сценарий писали. :D
tereh​ovich​87655​3​
Стаж: 7 лет
Сообщений: 734
Ratio: 7,937
Поблагодарили: 791
95.4%
russia.gif
весь денежный бюджет этого фильмасика пошёл на создание постера

_________________
i7-6700K / Asus Maximus VIII Ranger / RAM Corsair Vengeance LPX 16 gb DDR4 / Gigabyte GeForce GTX 970 G1 Gaming / SSD SAMSUNG 850 PRO 256Gb / HDD WD Red 4 tb / win 7x64
Серге​й9091​3​
Стаж: 5 лет 10 мес.
Сообщений: 29
Ratio: 0,627
4.12%
корпорация мне очень нравиться
arnory666
Стаж: 4 года 4 мес.
Сообщений: 82
Ratio: 8,595
4.19%
russia.gif
Вспоните ГТА 2, и миссии у Zaibatsu ;-)
evildog-ru
Стаж: 6 лет
Сообщений: 5
Ratio: 22,14
1.31%
Транслейт с транслейта рассмешил? Дзайбацу это японская структура компаний, когда компании возникали и управлялись одной крупной семьёй. Потом японцы перешли к кэйрицу, это когда предприятия основаны и управляются на основе одного банка. К сюжету фильма подразумевает, что за корпорацией стоит какая-то могущественная семья.
Показать сообщения:   
Начать новую тему   Ответить на тему    Торрент-трекер NNM-Club -> Зарубежное кино -> Фильмы в оригинале (HD) Часовой пояс: GMT + 3
Страница 1 из 1