Интеллигентный торрент-трекер
canvas not supported
Нас вместе: 4 204 166

Призыв / The Call Up (2016) BDRip [H.264/720p] [EN]


 
 
RSS
Начать новую тему   Ответить на тему    Торрент-трекер NNM-Club -> Зарубежное кино -> Фильмы в оригинале (HD)
Автор Сообщение
smaster67 ®
Модератор Видео
Покровитель талантов Uploader 300+
Стаж: 7 лет 6 мес.
Сообщений: 6395
Ratio: 187,13
Поблагодарили: 180374
100%
Призыв / The Call Up (2016) BDRip [H.264/720p] [EN]

Производство: Великобритания
Жанр: фантастика, боевик

Режиссер: Чарльз Баркер
Актеры: Морфидд Кларк, Кристофер Оби, Макс Дикон, Том Бенедикт Найт, Паркер Сойерс, Малкольм Модель, Али Кук, Адриана Рэндолл, Дино Фаззани, Грег Колпакчи, Борис Лер

Описание:
Группа элитных онлайн-игроков получает таинственное приглашение от корпорации Заибатцу, испытать в реальной жизни крутую видеоигру - это мечта, перед которой невозможно устоять. Прибыв на полигон, группа получает высокотехнологичную экипировку и готовится к революционной игре. Но то, что начинается как встреча с мечтой, уникальным и волнующим опытом, быстро превращается в зловещую игру. Как только группа подвергается нападению со стороны вражеских военных, они понимают, что это не игра. Сделаешь ошибку - и ты поплатишься жизнью. Теперь этим мастерам компьютерных игр придется бороться за выживание по-настоящему.



Продолжительность: 01:30:23
Качество видео: BDRip
Перевод: Отсутствует
Язык озвучки: Английский

Видео: AVC, 1280x688 (1.85:1), 5412 kbps, 24 fps, 0,256 bpp
Аудио: английский / DTS / 5.1 / 48 kHz / 1509 kbps / 24 bit
Код:
General
Unique ID                                : 0 (0x0)
Complete name                          The.Call.Up.2016.720p.mkv
Format                                   : Matroska
Format version                           : Version 4 / Version 2
File size                                : 4.37 GiB
Duration                                 : 1 h 30 min
Overall bit rate                         : 6 919 kb/s
Encoded date                             : UTC 2010-02-22 21:41:29
Writing application                      : no_variable_data
Writing library                          : no_variable_data

Video
ID                                       : 1
Format                                   : AVC
Format/Info                              : Advanced Video Codec
Format profile                           : High@L4.1
Format settings, CABAC                   : Yes
Format settings, ReFrames                : 5 frames
Codec ID                                 : V_MPEG4/ISO/AVC
Duration                                 : 1 h 30 min
Bit rate                                 : 5 412 kb/s
Width                                    : 1 280 pixels
Height                                   : 688 pixels
Display aspect ratio                     : 1.85:1
Frame rate mode                          : Constant
Frame rate                               : 24.000 FPS
Color space                              : YUV
Chroma subsampling                       : 4:2:0
Bit depth                                : 8 bits
Scan type                                : Progressive
Bits/(Pixel*Frame)                       : 0.256
Stream size                              : 3.33 GiB (76%)
Writing library                          : x264 core 148 r2705 3f5ed56
Encoding settings                        : cabac=1 / ref=5 / deblock=1:-3:-3 / analyse=0x3:0x113 / me=umh / subme=8 / psy=1 / psy_rd=1.00:0.00 / mixed_ref=1 / me_range=24 / chroma_me=1 / trellis=1 / 8x8dct=1 / cqm=0 / deadzone=21,11 / fast_pskip=1 / chroma_qp_offset=-2 / threads=21 / lookahead_threads=3 / sliced_threads=0 / nr=0 / decimate=1 / interlaced=0 / bluray_compat=0 / constrained_intra=0 / bframes=3 / b_pyramid=2 / b_adapt=2 / b_bias=0 / direct=3 / weightb=1 / open_gop=0 / weightp=2 / keyint=240 / keyint_min=24 / scenecut=40 / intra_refresh=0 / rc_lookahead=50 / rc=2pass / mbtree=1 / bitrate=5412 / ratetol=1.0 / qcomp=0.60 / qpmin=0 / qpmax=69 / qpstep=4 / cplxblur=20.0 / qblur=0.5 / ip_ratio=1.40 / aq=3:0.80
Default                                  : Yes
Forced                                   : No
Statistics Tags Issue                    : no_variable_data 1970-01-01 00:00:00 / no_variable_data 2010-02-22 21:41:29
FromStats_BitRate                        : 5407977
FromStats_Duration                       : 01:30:23.042000000
FromStats_FrameCount                     : 130153
FromStats_StreamSize                     : 3665961068

Audio
ID                                       : 2
Format                                   : DTS
Format/Info                              : Digital Theater Systems
Mode                                     : 16
Format settings, Endianness              : Big
Codec ID                                 : A_DTS
Duration                                 : 1 h 30 min
Bit rate mode                            : Constant
Bit rate                                 : 1 509 kb/s
Channel(s)                               : 6 channels
Channel positions                        : Front: L C R, Side: L R, LFE
Sampling rate                            : 48.0 kHz
Frame rate                               : 93.750 FPS (512 spf)
Bit depth                                : 24 bits
Compression mode                         : Lossy
Stream size                              : 976 MiB (22%)
Language                                 : English
Default                                  : Yes
Forced                                   : No
Statistics Tags Issue                    : no_variable_data 1970-01-01 00:00:00 / no_variable_data 2010-02-22 21:41:29
FromStats_BitRate                        : 1509000
FromStats_Duration                       : 01:30:23.008000000
FromStats_FrameCount                     : 508407
FromStats_StreamSize                     : 1022914884

Menu
00:00:00.000                             : en:00:00:00.000
00:06:34.458                             : en:00:06:34.458
00:11:25.458                             : en:00:11:25.458
00:17:14.875                             : en:00:17:14.875
00:23:28.167                             : en:00:23:28.167
00:28:49.958                             : en:00:28:49.958
00:34:52.375                             : en:00:34:52.375
00:40:06.667                             : en:00:40:06.667
00:46:25.167                             : en:00:46:25.167
00:52:16.292                             : en:00:52:16.292
00:58:01.417                             : en:00:58:01.417
01:03:02.917                             : en:01:03:02.917
01:09:19.000                             : en:01:09:19.000
01:14:23.917                             : en:01:14:23.917
01:20:32.208                             : en:01:20:32.208
01:26:52.833                             : en:01:26:52.833

Скриншоты:



Время раздачи: с 13:00 до 23:00
[NNMClub.to]_The.Call.Up.2016.720p.mkv.torrent
 Торрент: Серебряная раздча  Зарегистрирован
 
Примагнититься
Free Leech
Зарегистрируйтесь и скачайте торрент!
22 KB
 Зарегистрирован:   31 Авг 2016 09:53:10
 Размер:   4,37 GB  (
 Рейтинг:    (Голосов: 5)
 Поблагодарили:   34
 Проверка:   Оформление проверено модератором 31 Авг 2016 09:54:00
Как cкачать  ·  Как раздать  ·  Правильно оформить  ·  Поднять ратио!  
loquat
Стаж: 3 года 7 мес.
Сообщений: 1
Ratio: 7,849
2.22%
Интересно кто так назвал корпорацию - "Заибатцу".
zz13
Стаж: 4 года 11 мес.
Сообщений: 83
Ratio: 12,306
24.24%
ну это явно наши постарались с названием корпорации, уж больно звучное )
сюжет вообще порадовал - ылита игроков-задротов против военных ) в реальности у игроков нет шансов вообще )
malia27
Стаж: 5 лет 1 мес.
Сообщений: 3
Ratio: 10,916
5.62%
russia.gif
loquat писал(а): Перейти к сообщению
Интересно кто так назвал корпорацию - "Заибатцу".

Ну все правильно... Нормальная же корпорация :смех:
D_Ex
Стаж: 6 лет 3 мес.
Сообщений: 124
Ratio: 2,838
Поблагодарили: 240
8.37%
Зайбатцу?! Аааа-ха-ха-ха!
Как только с переводом выйдет, обязательно посмотрю.

П. С. А скриншоты прям такие серьёзные... Юмора никакого по ним не просматривается.
krusec
Стаж: 3 года 10 мес.
Сообщений: 1
Ratio: 15,678
8.56%
заибатцу, это ж мафия из гта. первая, вторая часть :)
BorHuK
Стаж: 6 лет 5 мес.
Сообщений: 12
Ratio: 2,89
33.17%
Mishima Zaibatsu - Tekken
Alexey594
Стаж: 6 лет 3 мес.
Сообщений: 30
Ratio: 0,482
1.25%
krusec писал(а): Перейти к сообщению
заибатцу, это ж мафия из гта. первая, вторая часть :)

Да помню в гташке, думал перевод плохой, а нет)
Показать сообщения:   
Начать новую тему   Ответить на тему    Торрент-трекер NNM-Club -> Зарубежное кино -> Фильмы в оригинале (HD) Часовой пояс: GMT + 3
Страница 1 из 1