Интеллигентный торрент-трекер
canvas not supported
Нас вместе: 4 261 259

Призыв / The Call Up (2016) BDRip [H.264/1080p] [EN]


Страницы:  1, 2  След. 
 
RSS
Начать новую тему   Ответить на тему    Торрент-трекер NNM-Club -> Зарубежное кино -> Фильмы в оригинале (HD)
Автор Сообщение
smaster67 ®
Модератор Видео
Покровитель талантов Uploader 300+
Стаж: 7 лет 7 мес.
Сообщений: 6505
Ratio: 189,137
Поблагодарили: 185626
100%
Призыв / The Call Up (2016) BDRip [H.264/1080p] [EN]

Производство: Великобритания
Жанр: фантастика, боевик

Режиссер: Чарльз Баркер
Актеры: Морфидд Кларк, Кристофер Оби, Макс Дикон, Том Бенедикт Найт, Паркер Сойерс, Малкольм Модель, Али Кук, Адриана Рэндолл, Дино Фаззани, Грег Колпакчи, Борис Лер

Описание:
Группа элитных онлайн-игроков получает таинственное приглашение от корпорации Заибатцу, испытать в реальной жизни крутую видеоигру - это мечта, перед которой невозможно устоять. Прибыв на полигон, группа получает высокотехнологичную экипировку и готовится к революционной игре. Но то, что начинается как встреча с мечтой, уникальным и волнующим опытом, быстро превращается в зловещую игру. Как только группа подвергается нападению со стороны вражеских военных, они понимают, что это не игра. Сделаешь ошибку - и ты поплатишься жизнью. Теперь этим мастерам компьютерных игр придется бороться за выживание по-настоящему.



Продолжительность: 01:30:23
Качество видео: BDRip
Перевод: Отсутствует
Язык озвучки: Английский

Видео: AVC, 1920x1040 (1.85:1), 8877 kbps, 24 fps, 0,185 bpp
Аудио: английский / DTS / 5.1 / 48 kHz / 1509 kbps / 24 bit
Код:
General
Unique ID                                : 0 (0x0)
Complete name                           The.Call.Up.2016.1080p.mkv
Format                                   : Matroska
Format version                           : Version 4 / Version 2
File size                                : 6.55 GiB
Duration                                 : 1 h 30 min
Overall bit rate                         : 10.4 Mb/s
Encoded date                             : UTC 2010-02-22 21:41:29
Writing application                      : no_variable_data
Writing library                          : no_variable_data

Video
ID                                       : 1
Format                                   : AVC
Format/Info                              : Advanced Video Codec
Format profile                           : High@L4.1
Format settings, CABAC                   : Yes
Format settings, ReFrames                : 4 frames
Codec ID                                 : V_MPEG4/ISO/AVC
Duration                                 : 1 h 30 min
Bit rate                                 : 8 877 kb/s
Width                                    : 1 920 pixels
Height                                   : 1 040 pixels
Display aspect ratio                     : 1.85:1
Frame rate mode                          : Constant
Frame rate                               : 24.000 FPS
Color space                              : YUV
Chroma subsampling                       : 4:2:0
Bit depth                                : 8 bits
Scan type                                : Progressive
Bits/(Pixel*Frame)                       : 0.185
Stream size                              : 5.47 GiB (83%)
Writing library                          : x264 core 148 r2705 3f5ed56
Encoding settings                        : cabac=1 / ref=4 / deblock=1:-3:-3 / analyse=0x3:0x113 / me=umh / subme=8 / psy=1 / psy_rd=1.00:0.00 / mixed_ref=1 / me_range=32 / chroma_me=1 / trellis=1 / 8x8dct=1 / cqm=0 / deadzone=21,11 / fast_pskip=1 / chroma_qp_offset=-2 / threads=24 / lookahead_threads=4 / sliced_threads=0 / nr=0 / decimate=1 / interlaced=0 / bluray_compat=0 / constrained_intra=0 / bframes=3 / b_pyramid=2 / b_adapt=2 / b_bias=0 / direct=3 / weightb=1 / open_gop=0 / weightp=2 / keyint=240 / keyint_min=24 / scenecut=40 / intra_refresh=0 / rc_lookahead=50 / rc=2pass / mbtree=1 / bitrate=8877 / ratetol=1.0 / qcomp=0.60 / qpmin=0 / qpmax=69 / qpstep=4 / cplxblur=20.0 / qblur=0.5 / ip_ratio=1.40 / aq=3:0.80
Default                                  : Yes
Forced                                   : No
Statistics Tags Issue                    : no_variable_data 1970-01-01 00:00:00 / no_variable_data 2010-02-22 21:41:29
FromStats_BitRate                        : 8871378
FromStats_Duration                       : 01:30:23.042000000
FromStats_FrameCount                     : 130153
FromStats_StreamSize                     : 6013732536

Audio
ID                                       : 2
Format                                   : DTS
Format/Info                              : Digital Theater Systems
Mode                                     : 16
Format settings, Endianness              : Big
Codec ID                                 : A_DTS
Duration                                 : 1 h 30 min
Bit rate mode                            : Constant
Bit rate                                 : 1 509 kb/s
Channel(s)                               : 6 channels
Channel positions                        : Front: L C R, Side: L R, LFE
Sampling rate                            : 48.0 kHz
Frame rate                               : 93.750 FPS (512 spf)
Bit depth                                : 24 bits
Compression mode                         : Lossy
Stream size                              : 976 MiB (15%)
Language                                 : English
Default                                  : Yes
Forced                                   : No
Statistics Tags Issue                    : no_variable_data 1970-01-01 00:00:00 / no_variable_data 2010-02-22 21:41:29
FromStats_BitRate                        : 1509000
FromStats_Duration                       : 01:30:23.008000000
FromStats_FrameCount                     : 508407
FromStats_StreamSize                     : 1022914884

Menu
00:00:00.000                             : en:00:00:00.000
00:06:34.458                             : en:00:06:34.458
00:11:25.458                             : en:00:11:25.458
00:17:14.875                             : en:00:17:14.875
00:23:28.167                             : en:00:23:28.167
00:28:49.958                             : en:00:28:49.958
00:34:52.375                             : en:00:34:52.375
00:40:06.667                             : en:00:40:06.667
00:46:25.167                             : en:00:46:25.167
00:52:16.292                             : en:00:52:16.292
00:58:01.417                             : en:00:58:01.417
01:03:02.917                             : en:01:03:02.917
01:09:19.000                             : en:01:09:19.000
01:14:23.917                             : en:01:14:23.917
01:20:32.208                             : en:01:20:32.208
01:26:52.833                             : en:01:26:52.833

Скриншоты:



Время раздачи: с 13:00 до 23:00
[NNMClub.to]_The.Call.Up.2016.1080p.mkv.torrent
 Торрент: Золотая раздача  Зарегистрирован
 
Примагнититься
Free Leech
Зарегистрируйтесь и скачайте торрент!
33 KB
 Зарегистрирован:   31 Авг 2016 11:07:04
 Размер:   6,55 GB  (
 Рейтинг:   4,2 (Голосов: 12)
 Поблагодарили:   71
 Проверка:   Оформление проверено модератором 31 Авг 2016 11:08:09
Как cкачать  ·  Как раздать  ·  Правильно оформить  ·  Поднять ратио!  
Liber238

Online
Стаж: 3 года 1 мес.
Сообщений: 66
Ratio: 12,045
3.68%
Название у корпорации очень звучное, только ради этого стоит посмотреть фильм. :)))
ZAXAR__
Стаж: 2 года 11 мес.
Сообщений: 254
Ratio: 87,835
Раздал: 23,4 TB
100%
Откуда: CCCP
ussr.gif
В Описании - название корпорации оригинальное. :D

_________________
От своего хвоста не уйдешь.
nfqkey
Стаж: 3 года 1 мес.
Сообщений: 326
Ratio: 0,795
77.68%
Liber238 писал(а): Перейти к сообщению
Название у корпорации очень звучное, только ради этого стоит посмотреть фильм. :)))

дааа, "Заибатцу" звучит огого :смех:
sektant
Стаж: 7 лет 9 мес.
Сообщений: 80
Ratio: 6,554
100%
czechrepublic.gif
На призыв из ЗАИБАТЦУ нельзя не ответить! :)))
dimazzz01
Стаж: 7 лет 1 мес.
Сообщений: 1279
Ratio: 116,947
Раздал: 20,82 TB
100%
Откуда: с Севера
russia.gif
Сценарист, видимо, знаком с русским народным диалектом.

_________________
vlp809
Стаж: 4 года 1 мес.
Сообщений: 83
Ratio: 47,512
100%
так, название корпорации, вольный перевод ? ))
bubblegam
Стаж: 3 года
Сообщений: 11
Ratio: 7,016
100%
:лол: :лол:
korosun
Стаж: 4 года 5 мес.
Сообщений: 45
Ratio: 16,837
2%
:смущение:
VladBayt72

Online
Стаж: 8 лет 4 мес.
Сообщений: 69
Ratio: 5,268
95.74%
russia.gif
Дзайбацу (яп. 財閥, собственность) — японский термин, означающий «денежный клан» или конгломерат.

Он использовался c XIX до первой половины XX века для именования больших семей, контролирующих банковские и индустриальные объединения (картели, синдикаты). Четыре главных дзайбацу начали свою историю ещё в период Эдо. Это «Мицубиси» (яп. 三菱), «Мицуи»[en] (яп. 三井), «Сумитомо» (яп. 住友) и «Ясуда[en]» (яп. 安田). Бизнес-конгломераты, «дочерние» и более мелкие дзайбацу, которые просуществовали со времён Русско-японской войны до Второй мировой: «Асано» (яп. 浅野財閥), «Окура» (яп. 大倉 о:кура), «Кога» (яп. 古河), «Накадзима» (яп. 中島) и «Аюкава» (яп. 鮎川).
alienego
Стаж: 3 года 8 мес.
Сообщений: 31
Ratio: 2,916
63.64%
а сам фильмец [censored]?

 !  Примечание от lexandros:

2.2. Использование в общении и переписке нецензурной брани или эвфемизмов, обсценной лексики и фразеологии, включая завуалированный мат, а также любое их цитирование.

Устное предупреждение!
zalipan
Стаж: 5 лет 11 мес.
Сообщений: 17
Ratio: 2,847
27.25%
albania.gif
На обложке Daft Punk?
Это ж [censored]!!!

 !  Примечание от lexandros:

2.2. Использование в общении и переписке нецензурной брани или эвфемизмов, обсценной лексики и фразеологии, включая завуалированный мат, а также любое их цитирование.

Устное предупреждение!
lexandros
RG Releasers
Куратор Видео
 
Стаж: 3 года 8 мес.
Сообщений: 1733
Ratio: 556,265
Поблагодарили: 21273
100%
russia.gif
Господа! Заканчиваем этот детский сад!
Ведете себя как малые дети. Услышали созвучное слово и давай друг за другом повторять на все лады и радоваться...

Прекращаем.

_________________
Все исправлено? Напишите в ЛС. Ссылка на релиз в теле (а не в теме) сообщения - обязательна.
Набор модераторов в категорию Видео | Правила оформления релизов в разделе Видео | Тех. регламент размещения материалов в разделе Видео
vamp756
Стаж: 2 года 11 мес.
Сообщений: 17
Ratio: 20,583
0.78%
lexandros писал(а): Перейти к сообщению
Господа! Заканчиваем этот детский сад!
Ведете себя как малые дети. Услышали созвучное слово и давай друг за другом повторять на все лады и радоваться...

Прекращаем.


только ради "Заибатсу" тут все и собрались, а вы говорите "прекращаем"
lleecctt1
Стаж: 4 года 7 мес.
Сообщений: 25
Ratio: 3,625
22.29%
Нельзя вот так просто взять и пройти мимо такой прекрасной корпорации, обязательно посмотрю фильм :лол: :лол: :лол:
Показать сообщения:   
Начать новую тему   Ответить на тему    Торрент-трекер NNM-Club -> Зарубежное кино -> Фильмы в оригинале (HD) Часовой пояс: GMT + 3
Страницы:  1, 2  След.
Страница 1 из 2