Интеллигентный торрент-трекер
canvas not supported
Нас вместе: 4 329 185

Налетчики / Marauders (2016) BDRip [H.264/720p] [EN]


 
 
RSS
Начать новую тему   Ответить на тему    Торрент-трекер NNM-Club -> Зарубежное кино -> Фильмы в оригинале (HD)
Автор Сообщение
smaster67 ®
Модератор Видео
Покровитель талантов Uploader 300+
Стаж: 8 лет
Сообщений: 6669
Ratio: 202,697
Поблагодарили: 194101
100%
Налетчики / Marauders (2016) BDRip [H.264/720p] [EN]

Производство: Канада
Жанр: боевик, триллер, криминал

Режиссер: Стивен С. Миллер
Актеры: Брюс Уиллис, Кристофер Мелони, Дэйв Батиста, Эдриан Гренье, Лидия Халл, Тайлер Джон Олсон, Кристофер Роб Бауэн, Ричи Чэнс, Крис Хилл, Дэнни А. Абекейзер, Тексас Бэттл, Тара Холт

Описание:
История об агенте ФБР, который нападает на след преступников, ограбивших банк и отдавших все украденные деньги на благотворительные нужды. Чем дальше продвигается расследование, тем больше главный герой убеждается в том, что у владельца банка имеются собственные секреты.



Продолжительность: 01:47:07
Качество видео: BDRip
Перевод: Отсутствует
Язык озвучки: Английский

Видео: AVC, 1280x536 (2.40:1), 5793 kbps, 23,976 fps, 0,352 bpp
Аудио: английский / DTS / 5.1 / 48 kHz / 1509 kbps / 24 bit
Код: выделить все
General
Unique ID                            Marauders.2016.720p.mkv
Format                                   : Matroska
Format version                           : Version 4 / Version 2
File size                                : 5.47 GiB
Duration                                 : 1 h 47 min
Overall bit rate                         : 7 305 kb/s
Encoded date                             : UTC 2016-08-30 08:31:33
Writing application                      : mkvmerge v8.3.0 ('Over the Horizon') 64bit
Writing library                          : libebml v1.3.1 + libmatroska v1.4.2

Video
ID                                       : 1
Format                                   : AVC
Format/Info                              : Advanced Video Codec
Format profile                           : High@L4.1
Format settings, CABAC                   : Yes
Format settings, ReFrames                : 5 frames
Codec ID                                 : V_MPEG4/ISO/AVC
Duration                                 : 1 h 47 min
Bit rate                                 : 5 793 kb/s
Width                                    : 1 280 pixels
Height                                   : 536 pixels
Display aspect ratio                     : 2.40:1
Frame rate mode                          : Constant
Frame rate                               : 23.976 FPS
Color space                              : YUV
Chroma subsampling                       : 4:2:0
Bit depth                                : 8 bits
Scan type                                : Progressive
Bits/(Pixel*Frame)                       : 0.352
Stream size                              : 4.33 GiB (79%)
Writing library                          : x264 core 148 r2692 64f4e24
Encoding settings                        : cabac=1 / ref=5 / deblock=1:0:0 / analyse=0x3:0x133 / me=umh / subme=7 / psy=1 / psy_rd=1.00:0.00 / mixed_ref=1 / me_range=16 / chroma_me=1 / trellis=1 / 8x8dct=1 / cqm=0 / deadzone=21,11 / fast_pskip=0 / chroma_qp_offset=-2 / threads=17 / lookahead_threads=2 / sliced_threads=0 / nr=0 / decimate=1 / interlaced=0 / bluray_compat=0 / constrained_intra=0 / bframes=3 / b_pyramid=2 / b_adapt=1 / b_bias=0 / direct=1 / weightb=1 / open_gop=0 / weightp=2 / keyint=250 / keyint_min=23 / scenecut=40 / intra_refresh=0 / rc_lookahead=40 / rc=2pass / mbtree=1 / bitrate=5793 / ratetol=1.0 / qcomp=0.60 / qpmin=0 / qpmax=69 / qpstep=4 / cplxblur=20.0 / qblur=0.5 / ip_ratio=1.40 / aq=1:1.00
Language                                 : English
Default                                  : Yes
Forced                                   : No

Audio
ID                                       : 2
Format                                   : DTS
Format/Info                              : Digital Theater Systems
Mode                                     : 16
Format settings, Endianness              : Big
Codec ID                                 : A_DTS
Duration                                 : 1 h 47 min
Bit rate mode                            : Constant
Bit rate                                 : 1 509 kb/s
Channel(s)                               : 6 channels
Channel positions                        : Front: L C R, Side: L R, LFE
Sampling rate                            : 48.0 kHz
Frame rate                               : 93.750 FPS (512 spf)
Bit depth                                : 24 bits
Compression mode                         : Lossy
Stream size                              : 1.13 GiB (21%)
Language                                 : English
Default                                  : Yes
Forced                                   : No

Menu
00:00:00.000                             : en:00:00:00.000
00:05:19.402                             : en:00:05:19.402
00:11:57.717                             : en:00:11:57.717
00:17:46.107                             : en:00:17:46.107
00:24:42.648                             : en:00:24:42.648
00:30:33.874                             : en:00:30:33.874
00:39:07.679                             : en:00:39:07.679
00:46:14.981                             : en:00:46:14.981
00:51:49.356                             : en:00:51:49.356
00:55:58.272                             : en:00:55:58.272
01:02:08.016                             : en:01:02:08.016
01:09:21.699                             : en:01:09:21.699
01:16:38.594                             : en:01:16:38.594
01:22:48.839                             : en:01:22:48.839
01:28:22.172                             : en:01:28:22.172
01:34:08.351                             : en:01:34:08.351

Скриншоты:



Время раздачи: с 13:00 до 23:00
[NNMClub.to]_Marauders.2016.720p.mkv.torrent
 Торрент: Серебряная раздча  Зарегистрирован
 
Примагнититься
Free Leech
Зарегистрируйтесь и скачайте торрент!
27,5 KB
 Зарегистрирован:   31 Авг 2016 11:37:23
 Размер:   5,47 GB  (
 Рейтинг:    (Голосов: 6)
 Поблагодарили:   43
 Проверка:   Оформление проверено модератором 31 Авг 2016 11:37:51
Как cкачать  ·  Как раздать  ·  Правильно оформить  ·  Поднять ратио!  
Показать сообщения:   
Начать новую тему   Ответить на тему    Торрент-трекер NNM-Club -> Зарубежное кино -> Фильмы в оригинале (HD) Часовой пояс: GMT + 3
Страница 1 из 1