Интеллигентный торрент-трекер
canvas not supported
Нас вместе: 4 313 900

Любовь и дружба / Love & Friendship (2016) BDRip [H.264/720p] [EN]


 
 
RSS
Начать новую тему   Ответить на тему    Торрент-трекер NNM-Club -> Зарубежное кино -> Фильмы в оригинале (HD)
Автор Сообщение
smaster67 ®
Модератор Видео
Покровитель талантов Uploader 300+
Стаж: 7 лет 8 мес.
Сообщений: 6595
Ratio: 193,307
Поблагодарили: 190309
100%
Любовь и дружба / Love & Friendship (2016) BDRip [H.264/720p] [EN]

Производство: Ирландия, Нидерланды, Франция, США, Великобритания
Жанр: драма, мелодрама, комедия

Режиссер: Уит Стиллман
Актеры: Кейт Бекинсейл, Хлоя Севиньи, Завьер Сэмюэл, Морфидд Кларк, Эмма Гринвелл, Джастин Эдвардс, Джеймс Флит, Дженн Мюррэй, Стивен Фрай, Том Беннетт, Лохлэйнн О’Меарайн, Софи Радермахер

Описание:
Прекрасная молодая вдова леди Сьюзан приезжает в имение семьи покойного мужа переждать, пока в высшем обществе перестанут судачить о ее похождениях, и придумать, как поправить свое финансовое положение. Не теряя времени даром, она решает подыскать богатого мужа себе и своей юной дочери. В ход идут не только красота и обаяние, но и острый насмешливый ум и невероятный талант плести интриги.

Продолжительность: 01:33:18
Качество видео: BDRip
Перевод: Отсутствует
Язык озвучки: Английский

Видео: AVC, 1280x688 (1.85:1), 5196 kbps, 23,976 fps, 0,246 bpp
Аудио: английский / DTS / 5.1 / 48 kHz / 1509 kbps / 24 bit
Код:
General
Unique ID                              Love.and.Friendship.2016.720p.mkv
Format                                   : Matroska
Format version                           : Version 4 / Version 2
File size                                : 4.37 GiB
Duration                                 : 1 h 33 min
Overall bit rate                         : 6 704 kb/s
Encoded date                             : UTC 2016-08-30 16:05:45
Writing application                      : mkvmerge v8.3.0 ('Over the Horizon') 64bit
Writing library                          : libebml v1.3.1 + libmatroska v1.4.2

Video
ID                                       : 1
Format                                   : AVC
Format/Info                              : Advanced Video Codec
Format profile                           : High@L4.1
Format settings, CABAC                   : Yes
Format settings, ReFrames                : 5 frames
Codec ID                                 : V_MPEG4/ISO/AVC
Duration                                 : 1 h 33 min
Bit rate                                 : 5 196 kb/s
Width                                    : 1 280 pixels
Height                                   : 688 pixels
Display aspect ratio                     : 1.85:1
Frame rate mode                          : Constant
Frame rate                               : 23.976 FPS
Color space                              : YUV
Chroma subsampling                       : 4:2:0
Bit depth                                : 8 bits
Scan type                                : Progressive
Bits/(Pixel*Frame)                       : 0.246
Stream size                              : 3.38 GiB (77%)
Writing library                          : x264 core 148 r2692 64f4e24
Encoding settings                        : cabac=1 / ref=5 / deblock=1:0:0 / analyse=0x3:0x133 / me=umh / subme=7 / psy=1 / psy_rd=1.00:0.00 / mixed_ref=1 / me_range=16 / chroma_me=1 / trellis=1 / 8x8dct=1 / cqm=0 / deadzone=21,11 / fast_pskip=0 / chroma_qp_offset=-2 / threads=21 / lookahead_threads=3 / sliced_threads=0 / nr=0 / decimate=1 / interlaced=0 / bluray_compat=0 / constrained_intra=0 / bframes=3 / b_pyramid=2 / b_adapt=1 / b_bias=0 / direct=1 / weightb=1 / open_gop=0 / weightp=2 / keyint=250 / keyint_min=23 / scenecut=40 / intra_refresh=0 / rc_lookahead=40 / rc=2pass / mbtree=1 / bitrate=5196 / ratetol=1.0 / qcomp=0.60 / qpmin=0 / qpmax=69 / qpstep=4 / cplxblur=20.0 / qblur=0.5 / ip_ratio=1.40 / aq=1:1.00
Language                                 : English
Default                                  : Yes
Forced                                   : No

Audio
ID                                       : 2
Format                                   : DTS
Format/Info                              : Digital Theater Systems
Mode                                     : 16
Format settings, Endianness              : Big
Codec ID                                 : A_DTS
Duration                                 : 1 h 33 min
Bit rate mode                            : Constant
Bit rate                                 : 1 509 kb/s
Channel(s)                               : 6 channels
Channel positions                        : Front: L C R, Side: L R, LFE
Sampling rate                            : 48.0 kHz
Frame rate                               : 93.750 FPS (512 spf)
Bit depth                                : 24 bits
Compression mode                         : Lossy
Stream size                              : 1 007 MiB (23%)
Language                                 : English
Default                                  : Yes
Forced                                   : No

Menu
00:00:00.000                             : en:00:00:00.000
00:06:18.962                             : en:00:06:18.962
00:14:33.581                             : en:00:14:33.581
00:22:33.686                             : en:00:22:33.686
00:29:48.620                             : en:00:29:48.620
00:34:52.382                             : en:00:34:52.382
00:41:29.237                             : en:00:41:29.237
00:47:13.956                             : en:00:47:13.956
00:51:01.225                             : en:00:51:01.225
00:53:26.745                             : en:00:53:26.745
00:59:29.399                             : en:00:59:29.399
01:04:45.131                             : en:01:04:45.131
01:07:36.761                             : en:01:07:36.761
01:13:18.769                             : en:01:13:18.769
01:19:51.036                             : en:01:19:51.036
01:25:54.483                             : en:01:25:54.483

Скриншоты:



Время раздачи: с 13:00 до 23:00
[NNMClub.to]_Love.and.Friendship.2016.720p.mkv.torrent
 Торрент: Серебряная раздча  Зарегистрирован
 
Примагнититься
Free Leech
Зарегистрируйтесь и скачайте торрент!
22 KB
 Зарегистрирован:   31 Авг 2016 12:15:01
 Размер:   4,37 GB  (
 Рейтинг:    (Голосов: 3)
 Поблагодарили:   45
 Проверка:   Оформление проверено модератором 31 Авг 2016 12:17:18
Как cкачать  ·  Как раздать  ·  Правильно оформить  ·  Поднять ратио!  
Dench​ick99​9​
Стаж: 3 года 3 мес.
Сообщений: 65
Ratio: 3,969
22.68%
наложите сюда озвучку и будет идеально
NYA5H
Стаж: 4 года 9 мес.
Сообщений: 25
Ratio: 3,96
24.96%
К чёрту все озвучки! :<
Показать сообщения:   
Начать новую тему   Ответить на тему    Торрент-трекер NNM-Club -> Зарубежное кино -> Фильмы в оригинале (HD) Часовой пояс: GMT + 3
Страница 1 из 1