Интеллигентный торрент-трекер
canvas not supported
Нас вместе: 4 339 480

Этажом ниже / The Ones Below (2015) BDRemux [H.264/1080p] [EN / EN, Sp Sub]


 
 
RSS
Начать новую тему   Ответить на тему    Торрент-трекер NNM-Club -> Зарубежное кино -> Фильмы в оригинале (HD)
Автор Сообщение
smaster67 ®
Модератор Видео
Покровитель талантов Uploader 300+
Стаж: 7 лет 11 мес.
Сообщений: 6652
Ratio: 201,253
Поблагодарили: 193356
100%
Этажом ниже / The Ones Below (2015) BDRemux [H.264/1080p] [EN / EN, Sp Sub]

Производство: Великобритания
Жанр: триллер

Режиссер: Дэвид Фарр
Актеры: Клеманс Поэзи, Дэвид Моррисси, Стивен Кэмпбелл Мур, Лаура Бирн, Дебора Файндлей, Наташа Алдерслэйд, Лайла Ай, Фрэнсис Эшман, Алекс Эйвери, Грэйс Калдер, Туен До, Джонатан Харден

Описание:
У семейной пары Кейт и Джастина, ждущей желанного и уже любимого первого ребенка, появляются этажом ниже соседи, тоже в ожидании первенца. Беременная соседка теряет ребенка в результате несчастного случая, обвиняя в этом своих новых друзей сверху. А дальше в жизни у Кейт и Джастина начинают происходить странные вещи...



Продолжительность: 01:26:15
Качество видео: BDRemux
Перевод: Отсутствует
Язык озвучки: Английский
Язык субтитров: английский, испанский
Вид субтитров: Вшитые

Видео: AVC, 1920x1080 (16:9), 19987 kbps, 23,976 fps, 0,402 bpp
Аудио: английский / DTS-HD / 5.1 / 48 kHz / 1641 kbps / 16 bit (Core: 5.1 / 48 kHz / 1509 kbps / 16 bit)
Код: выделить все
General
Unique ID                               The.Ones.Below.2015.BluRay.1080p.DTS-HD.MA.5.1.AVC.REMUX-FraMeSToR\The.Ones.Below.2015.BluRay.1080p.DTS-HD.MA.5.1.AVC.REMUX-FraMeSToR.mkv
Format                                   : Matroska
Format version                           : Version 4 / Version 2
File size                                : 13.1 GiB
Duration                                 : 1 h 26 min
Overall bit rate mode                    : Variable
Overall bit rate                         : 21.7 Mb/s
Movie name                               : The Ones Below
Encoded date                             : UTC 2016-08-31 16:43:07
Writing application                      : mkvmerge v9.4.0 ('Knurl') 64bit
Writing library                          : libebml v1.3.4 + libmatroska v1.4.5

Video
ID                                       : 1
Format                                   : AVC
Format/Info                              : Advanced Video Codec
Format profile                           : High@L4.1
Format settings, CABAC                   : Yes
Format settings, ReFrames                : 4 frames
Codec ID                                 : V_MPEG4/ISO/AVC
Duration                                 : 1 h 26 min
Bit rate mode                            : Variable
Bit rate                                 : 20.0 Mb/s
Maximum bit rate                         : 35.0 Mb/s
Width                                    : 1 920 pixels
Height                                   : 1 080 pixels
Display aspect ratio                     : 16:9
Frame rate mode                          : Constant
Frame rate                               : 23.976 (24000/1001) FPS
Standard                                 : NTSC
Color space                              : YUV
Chroma subsampling                       : 4:2:0
Bit depth                                : 8 bits
Scan type                                : Progressive
Bits/(Pixel*Frame)                       : 0.402
Stream size                              : 12.0 GiB (92%)
Default                                  : Yes
Forced                                   : No
Color range                              : Limited
Color primaries                          : BT.709
Transfer characteristics                 : BT.709
Matrix coefficients                      : BT.709

Audio
ID                                       : 2
Format                                   : DTS
Format/Info                              : Digital Theater Systems
Format profile                           : MA / Core
Mode                                     : 16
Format settings, Endianness              : Big
Codec ID                                 : A_DTS
Duration                                 : 1 h 26 min
Bit rate mode                            : Variable / Constant
Bit rate                                 : 1 641 kb/s / 1 509 kb/s
Channel(s)                               : 6 channels
Channel positions                        : Front: L C R, Side: L R, LFE
Sampling rate                            : 48.0 kHz
Frame rate                               : 93.750 FPS (512 spf)
Bit depth                                : 16 bits
Compression mode                         : Lossless / Lossy
Stream size                              : 1 013 MiB (8%)
Title                                    : DTS-HD MA 5.1
Language                                 : English
Default                                  : Yes
Forced                                   : No

Text #1
ID                                       : 3
Format                                   : PGS
Codec ID                                 : S_HDMV/PGS
Codec ID/Info                            : Picture based subtitle format used on BDs/HD-DVDs
Duration                                 : 1 h 23 min
Bit rate                                 : 46.3 kb/s
Count of elements                        : 1638
Stream size                              : 27.6 MiB (0%)
Title                                    : English (SDH)
Language                                 : English
Default                                  : Yes
Forced                                   : No

Text #2
ID                                       : 4
Format                                   : PGS
Codec ID                                 : S_HDMV/PGS
Codec ID/Info                            : Picture based subtitle format used on BDs/HD-DVDs
Duration                                 : 1 h 19 min
Bit rate                                 : 39.9 kb/s
Count of elements                        : 1444
Stream size                              : 22.8 MiB (0%)
Title                                    : Spanish (Latin American)
Language                                 : Spanish
Default                                  : No
Forced                                   : No

Menu
00:00:00.000                             : en:Chapter 1
00:07:42.753                             : en:Chapter 2
00:13:35.064                             : en:Chapter 3
00:23:48.301                             : en:Chapter 4
00:29:28.975                             : en:Chapter 5
00:36:43.951                             : en:Chapter 6
00:41:08.174                             : en:Chapter 7
00:49:04.274                             : en:Chapter 8
00:57:59.476                             : en:Chapter 9
01:08:11.962                             : en:Chapter 10
01:12:34.224                             : en:Chapter 11
01:21:36.850                             : en:Chapter 12

Скриншоты:



Время раздачи: с 13:00 до 23:00
[NNMClub.to]_The.Ones.Below.2015.BluRay.1080p.DTS-HD.MA.5.1.AVC.REMUX-FraMeSToR.mkv.torrent
 Торрент: Золотая раздача  Зарегистрирован
 
Примагнититься

Зарегистрируйтесь и скачайте торрент!
65,6 KB
 Зарегистрирован:   02 Сен 2016 23:50:01
 Размер:   13,1 GB  (
 Рейтинг:   4 (Голосов: 10)
 Поблагодарили:   48
 Проверка:   Оформление проверено модератором 02 Сен 2016 23:51:07
Как cкачать  ·  Как раздать  ·  Правильно оформить  ·  Поднять ратио!  
Jackzlo
Стаж: 6 лет 3 мес.
Сообщений: 217
Ratio: 4,773
16.69%
russia.gif
Спасибо за наводку, даже не слышал про такой фильм, хотя люблю как бы "умные ужастики" в духе "Звонка". тут же фильм хоть и не ужастик, всё равно какой-то достаточно "умный")
LordSin
Стаж: 7 лет 6 мес.
Сообщений: 286
Ratio: 1,025
3.9%
720p жду, есть русс сабы :подмигивание:
Показать сообщения:   
Начать новую тему   Ответить на тему    Торрент-трекер NNM-Club -> Зарубежное кино -> Фильмы в оригинале (HD) Часовой пояс: GMT + 3
Страница 1 из 1