Интеллигентный торрент-трекер
canvas not supported
Нас вместе: 4 346 503

Налетчики / Marauders (2016) BDRemux [H.264/1080p] [EN / EN, Sp Sub]


 
 
RSS
Начать новую тему   Ответить на тему    Торрент-трекер NNM-Club -> Зарубежное кино -> Фильмы в оригинале (HD)
Автор Сообщение
smaster67 ®
Модератор Видео
Покровитель талантов Uploader 300+
Стаж: 7 лет 11 мес.
Сообщений: 6650
Ratio: 200,977
Поблагодарили: 193292
100%
Налетчики / Marauders (2016) BDRemux [H.264/1080p] [EN / EN, Sp Sub]

Производство: Канада
Жанр: боевик, триллер, криминал

Режиссер: Стивен С. Миллер
Актеры: Брюс Уиллис, Кристофер Мелони, Дэйв Батиста, Эдриан Гренье, Лидия Халл, Тайлер Джон Олсон, Кристофер Роб Бауэн, Ричи Чэнс, Крис Хилл, Дэнни А. Абекейзер, Тексас Бэттл, Тара Холт

Описание:
История об агенте ФБР, который нападает на след преступников, ограбивших банк и отдавших все украденные деньги на благотворительные нужды. Чем дальше продвигается расследование, тем больше главный герой убеждается в том, что у владельца банка имеются собственные секреты.



Продолжительность: 01:47:07
Качество видео: BDRemux
Перевод: Отсутствует
Язык озвучки: Английский
Язык субтитров: английский, испанский
Вид субтитров: Вшитые

Видео: AVC, 1920x1080 (16:9), 34472 kbps, 23,976 fps, 0,693 bpp
Аудио: DTS-HD / 5.1 / 48 kHz / 3840 kbps / 24 bit (Core: 5.1 / 48 kHz / 1509 kbps / 24 bit)
Код: выделить все
General
Unique ID
Complete name                           Marauders.2016.REMUX.BluRay.1080p.AVC.DTS-HD.MA5.1-iFT\Marauders.2016.REMUX.BluRay.1080p.AVC.DTS-HD.MA5.1-iFT.mkv
Format                                   : Matroska
Format version                           : Version 4 / Version 2
File size                                : 28.7 GiB
Duration                                 : 1 h 47 min
Overall bit rate mode                    : Variable
Overall bit rate                         : 38.4 Mb/s
Encoded date                             : UTC 2016-09-03 19:01:54
Writing application                      : mkvmerge v9.1.0 ('Little Earthquakes') 64bit
Writing library                          : libebml v1.3.3 + libmatroska v1.4.4

Video
ID                                       : 1
Format                                   : AVC
Format/Info                              : Advanced Video Codec
Format profile                           : High@L4.1
Format settings, CABAC                   : Yes
Format settings, ReFrames                : 4 frames
Codec ID                                 : V_MPEG4/ISO/AVC
Duration                                 : 1 h 47 min
Bit rate mode                            : Variable
Bit rate                                 : 34.5 Mb/s
Maximum bit rate                         : 37.0 Mb/s
Width                                    : 1 920 pixels
Height                                   : 1 080 pixels
Display aspect ratio                     : 16:9
Frame rate mode                          : Constant
Frame rate                               : 23.976 (24000/1001) FPS
Color space                              : YUV
Chroma subsampling                       : 4:2:0
Bit depth                                : 8 bits
Scan type                                : Progressive
Bits/(Pixel*Frame)                       : 0.693
Stream size                              : 25.8 GiB (90%)
Default                                  : Yes
Forced                                   : No

Audio
ID                                       : 2
Format                                   : DTS
Format/Info                              : Digital Theater Systems
Format profile                           : MA / Core
Mode                                     : 16
Format settings, Endianness              : Big
Codec ID                                 : A_DTS
Duration                                 : 1 h 47 min
Bit rate mode                            : Variable / Constant
Bit rate                                 : 3 840 kb/s / 1 509 kb/s
Channel(s)                               : 6 channels
Channel positions                        : Front: L C R, Side: L R, LFE
Sampling rate                            : 48.0 kHz
Frame rate                               : 93.750 FPS (512 spf)
Bit depth                                : 24 bits
Compression mode                         : Lossless / Lossy
Stream size                              : 2.89 GiB (10%)
Default                                  : Yes
Forced                                   : No

Text #1
ID                                       : 3
Format                                   : PGS
Muxing mode                              : zlib
Codec ID                                 : S_HDMV/PGS
Codec ID/Info                            : Picture based subtitle format used on BDs/HD-DVDs
Duration                                 : 1 h 37 min
Bit rate                                 : 17.4 kb/s
Count of elements                        : 2824
Stream size                              : 12.2 MiB (0%)
Language                                 : English
Default                                  : Yes
Forced                                   : No

Text #2
ID                                       : 4
Format                                   : PGS
Muxing mode                              : zlib
Codec ID                                 : S_HDMV/PGS
Codec ID/Info                            : Picture based subtitle format used on BDs/HD-DVDs
Duration                                 : 1 h 41 min
Bit rate                                 : 16.8 kb/s
Count of elements                        : 2666
Stream size                              : 12.3 MiB (0%)
Language                                 : Spanish
Default                                  : No
Forced                                   : No

Menu
00:00:00.000                             : en:00:00:00.000
00:05:19.402                             : en:00:05:19.402
00:11:57.717                             : en:00:11:57.717
00:17:46.107                             : en:00:17:46.107
00:24:42.648                             : en:00:24:42.648
00:30:33.874                             : en:00:30:33.874
00:39:07.679                             : en:00:39:07.679
00:46:14.981                             : en:00:46:14.981
00:51:49.356                             : en:00:51:49.356
00:55:58.272                             : en:00:55:58.272
01:02:08.016                             : en:01:02:08.016
01:09:21.699                             : en:01:09:21.699
01:16:38.594                             : en:01:16:38.594
01:22:48.839                             : en:01:22:48.839
01:28:22.172                             : en:01:28:22.172
01:34:08.351                             : en:01:34:08.351

Скриншоты:



Время раздачи: с 13:00 до 23:00
[NNMClub.to]_Marauders.2016.REMUX.BluRay.1080p.AVC.DTS-HD.MA5.1-iFT.mkv.torrent
 Торрент: Золотая раздача  Зарегистрирован
 
Примагнититься
Free Leech
Зарегистрируйтесь и скачайте торрент!
144 KB
 Зарегистрирован:   04 Сен 2016 10:09:00
 Размер:   28,7 GB  (
 Рейтинг:   4,6 (Голосов: 11)
 Поблагодарили:   49
 Проверка:   Оформление проверено модератором 04 Сен 2016 10:10:11
Как cкачать  ·  Как раздать  ·  Правильно оформить  ·  Поднять ратио!  
Загрузка...
neosupiant
Стаж: 2 года 2 мес.
Сообщений: 49
Ratio: 1,578
100%
Брюс Виллис перешёл на съёмки в таком дешманском третьесортном шлаке, что я уверен... В ближайшее время мы его увидим в фильме Курицына.
Показать сообщения:   
Начать новую тему   Ответить на тему    Торрент-трекер NNM-Club -> Зарубежное кино -> Фильмы в оригинале (HD) Часовой пояс: GMT + 3
Страница 1 из 1