Интеллигентный торрент-трекер
canvas not supported
Нас вместе: 4 344 613

До встречи с тобой / Me Before You (2016) BDRemux [H.264/1080p] [Line]


 
 
RSS
Начать новую тему   Ответить на тему    Торрент-трекер NNM-Club -> Архив торрентов -> Архив Видео
Автор Сообщение
karfa​gen19​75​ ®
Стаж: 6 лет 6 мес.
Сообщений: 1324
Ratio: 43,62
Раздал: 25,63 TB
Поблагодарили: 70397
100%
Откуда: планета Земля
russia.gif
До встречи с тобой / Me Before You (2016) BDRemux [H.264/1080p] [Line]

Производство: США, Великобритания, Metro-Goldwyn-Mayer, New Line Cinema
Жанр: Драма

Режиссер: Теа Шэррок
Актеры: Эмилия Кларк, Сэм Клафлин, Дженна-Луиз Коулмэн, Мэттью Льюис, Чарльз Дэнс, Джоанна Ламли, Джанет МакТир, Ванесса Кирби, Брендан Койл, Александр Купер, ...

Описание:
Лу Кларк знает, сколько шагов от автобусной остановки до ее дома. Она знает, что ей очень нравится работа в кафе и что, скорее всего, она не любит своего бойфренда Патрика. Но Лу не знает, что вот-вот потеряет свою работу и что в ближайшем будущем ей понадобятся все силы, чтобы преодолеть свалившиеся на нее проблемы.
Уилл Трейнор знает, что сбивший его мотоциклист отнял у него желание жить. И он точно знает, что надо сделать, чтобы положить конец всему этому. Но он не знает, что Лу скоро ворвется в его мир буйством красок. И они оба не знают, что навсегда изменят жизнь друг друга.


Рейтинг MPAA: PG-13 (детям до 13 лет просмотр нежелателен)
Дата мировой премьеры: 2 июня 2016
Дата российской премьеры: 7 июля 2016, «Каро-Премьер»

Продолжительность: 01:50:14
Качество видео: BDRemux 1080p
Перевод: Дублированный (Line)
Язык субтитров: Английский
Вид субтитров: Вшитые отключаемые
Реклама: Отсутствует

Видео: AVC, 1920x1080 (16:9), 23.976 fps, 27.9 Mbps (0.561 bit/pixel)
Аудио #1: AC-3, 48.0 KHz, 6 ch, 640 Kbps, CBR (Русский [hand made] WetY)
Аудио #2: DTS MA / Core, 48.0 KHz, 6 ch, 3 510 Kbps / 1 510 Kbps, VBR (Английский Оригинал)
Код:
General
Unique ID                   : 185605231651075816817508936562512481937 (0x8BA24470DD477E8B96FA013C24E7CE91)
Complete name               : I:\Me.Before.You.2016.BDRemux.1080p.NNMCLUB.mkv
Format                      : Matroska
Format version              : Version 4 / Version 2
File size                   : 24.7 GiB
Duration                    : 1 h 50 min
Overall bit rate mode       : Variable
Overall bit rate            : 32.0 Mb/s
Encoded date                : UTC 2016-09-04 12:41:42
Writing application         : mkvmerge v9.3.1 ('Mask Machine') 64bit
Writing library             : libebml v1.3.4 + libmatroska v1.4.5

Video
ID                          : 1
Format                      : AVC
Format/Info                 : Advanced Video Codec
Format profile              : High@L4.1
Format settings, CABAC      : Yes
Format settings, ReFrames   : 2 frames
Format settings, GOP        : M=1, N=10
Codec ID                    : V_MPEG4/ISO/AVC
Duration                    : 1 h 50 min
Bit rate mode               : Variable
Bit rate                    : 27.9 Mb/s
Width                       : 1 920 pixels
Height                      : 1 080 pixels
Display aspect ratio        : 16:9
Frame rate mode             : Constant
Frame rate                  : 23.976 (24000/1001) FPS
Color space                 : YUV
Chroma subsampling          : 4:2:0
Bit depth                   : 8 bits
Scan type                   : Progressive
Bits/(Pixel*Frame)          : 0.561
Stream size                 : 21.5 GiB (87%)
Title                       : NNMCLUB
Language                    : English
Default                     : Yes
Forced                      : Yes

Audio #1
ID                          : 2
Format                      : AC-3
Format/Info                 : Audio Coding 3
Mode extension              : CM (complete main)
Format settings, Endianness : Big
Codec ID                    : A_AC3
Duration                    : 1 h 50 min
Bit rate mode               : Constant
Bit rate                    : 640 kb/s
Channel(s)                  : 6 channels
Channel positions           : Front: L C R, Side: L R, LFE
Sampling rate               : 48.0 kHz
Frame rate                  : 31.250 FPS (1536 spf)
Compression mode            : Lossy
Stream size                 : 505 MiB (2%)
Title                       : Line [hand made] WetY
Language                    : Russian
Default                     : Yes
Forced                      : No

Audio #2
ID                          : 3
Format                      : DTS
Format/Info                 : Digital Theater Systems
Format profile              : MA / Core
Mode                        : 16
Format settings, Endianness : Big
Codec ID                    : A_DTS
Duration                    : 1 h 50 min
Bit rate mode               : Variable / Constant
Bit rate                    : 3 510 kb/s / 1 509 kb/s
Channel(s)                  : 6 channels
Channel positions           : Front: L C R, Side: L R, LFE
Sampling rate               : 48.0 kHz
Frame rate                  : 93.750 FPS (512 spf)
Bit depth                   : 24 bits
Compression mode            : Lossless / Lossy
Stream size                 : 2.70 GiB (11%)
Title                       : Original
Language                    : English
Default                     : No
Forced                      : No

Text
ID                          : 4
Format                      : PGS
Muxing mode                 : zlib
Codec ID                    : S_HDMV/PGS
Codec ID/Info               : Picture based subtitle format used on BDs/HD-DVDs
Duration                    : 1 h 49 min
Bit rate                    : 12.6 kb/s
Count of elements           : 3494
Stream size                 : 9.88 MiB (0%)
Language                    : English
Default                     : No
Forced                      : No

Menu
00:00:00.000                : en:00:00:00.000
00:12:40.969                : en:00:12:40.969
00:20:01.575                : en:00:20:01.575
00:29:06.244                : en:00:29:06.244
00:39:38.418                : en:00:39:38.418
00:49:13.868                : en:00:49:13.868
01:01:15.547                : en:01:01:15.547
01:10:16.796                : en:01:10:16.796
01:19:16.418                : en:01:19:16.418
01:32:06.479                : en:01:32:06.479
01:37:58.331                : en:01:37:58.331
01:45:55.349                : en:01:45:55.349

Скриншоты:

Все одноименные релизы в Клубе
Время раздачи: До появления первых 3-5 скачавших
Me.Before.You.2016.BDRemux.1080p.NNMCLUB.mkv.torrent
 Торрент: Платиновая раздача  Зарегистрирован
 
Примагнититься

Скачать
 Зарегистрирован:   04 Сен 2016 16:59:31
 Размер:   24,7 GB  (
 Рейтинг:   4,7 (Голосов: 32)
 Поблагодарили:   149
 Проверка:   Оформление проверено модератором 04 Сен 2016 21:23:17
Как cкачать  ·  Как раздать  ·  Правильно оформить  ·  Поднять ратио!  
Загрузка...
viktorAM
Стаж: 5 лет 2 мес.
Сообщений: 443
Ratio: 23,96
Раздал: 20,74 TB
10.31%
nnm-club.gif
Посмотреть на мать драконов в отличном качестве просто мечта,но не всем доступно.Этот фильм есть в меньшем весе.Фильм не плохой,рекомендую для просмотра.
FireBird
Стаж: 10 лет 5 мес.
Сообщений: 132
Ratio: 21,275
Поблагодарили: 837
5.95%
Откуда: Санкт​-Пете​рбург​
ussr.gif
А ведь там ещё и невозможная девчонка... :смущение:
Так что - посмотрим...
Марселище
Стаж: 7 лет 4 мес.
Сообщений: 170
Ratio: 1,889
8.65%
russia.gif
Кто вообще может смотреть на эти живые живущие отдельной жизнью брови главной героини??? У наших артистов был такой совет молодым актерам: не хлопочи мордочкой! Ей бы кто такое проорал - может, дошло бы!
Кошмарный фильм - просто потерянное время!
-NarkoSky-
Стаж: 2 года 8 мес.
Сообщений: 95
Ratio: 1,304
49.28%
nnm-club.gif
Хороший фильм! Рекомендую к просмотру.
malko​v_vv2​007​
Стаж: 1 год 4 мес.
Сообщений: 12
Ratio: 7,097
6.25%
Друзья, а когда будет размер гораздо меньше этого?
Топик был перенесен из форума Новинки (HD) в форум Архив Видео

Причина переноса: Звук с IP-TV

Исправил релиз - напиши ЛС K.E.N, дав ссылку на релиз.
Если нет ответа 24 часа - нажми на кнопку "Обратить внимание модераторов".
SanSan30
Стаж: 2 года 7 мес.
Сообщений: 27
Ratio: 21,759
98.04%
russia.gif
Отличный фильм,но грустная концовка.
Показать сообщения:   
Начать новую тему   Ответить на тему    Торрент-трекер NNM-Club -> Архив торрентов -> Архив Видео Часовой пояс: GMT + 3
Страница 1 из 1