Интеллигентный торрент-трекер
canvas not supported
Нас вместе: 4 330 539

Поп-звезда: не переставай, не останавливайся / Popstar: Never Stop Never Stopping (2016) BDRemux [H.264/1080p] [EN / EN, Fr, Sp Sub]


 
 
RSS
Начать новую тему   Ответить на тему    Торрент-трекер NNM-Club -> Зарубежное кино -> Фильмы в оригинале (HD)
Автор Сообщение
smaster67 ®
Модератор Видео
Покровитель талантов Uploader 300+
Стаж: 8 лет
Сообщений: 6668
Ratio: 202,662
Поблагодарили: 194072
100%
Поп-звезда: не переставай, не останавливайся / Popstar: Never Stop Never Stopping (2016) BDRemux [H.264/1080p] [EN / EN, Fr, Sp Sub]

Производство: США
Жанр: комедия, музыка

Режиссер: Акива Шаффер , Йорма Такконе
Актеры: Энди Сэмберг, Йорма Такконе, Акива Шаффер, Сара Силверман, Тим Медоуз, Майя Рудольф, Джоан Кьюсак, Имоджен Путс, Крис Редд, Edgar Blackmon, Джеймс Бакли

Описание:
С самого детства Коннер был без ума от музыки. Ещё ребёнком он с двумя лучшими друзьями создал группу «The Style Boyz». Группа стала очень популярной, и Коннор зазвездился, решив, что успех группы - исключительно его заслуга. Один друг детства вовсе перестал с ним разговаривать, другой работает у Коннера диджеем. А лучшие друзья суперзвезды - его менеджер, организатор вечеринок и прочие непонятные личности, которым бы только тусоваться с утра до ночи.



Продолжительность: 01:26:30
Качество видео: BDRemux
Перевод: Отсутствует
Язык озвучки: Английский
Язык субтитров: английский, испанский, французский
Вид субтитров: Вшитые

Видео: AVC, 1920x1080 (16:9), 31012 kbps, 23,976 fps, 0,624 bpp
Аудио: DTS-HD / 5.1 / 48 kHz / 3639 kbps / 24 bit (Core: 5.1 / 48 kHz / 1509 kbps / 24 bit)
Код: выделить все
General
Unique ID
Complete name                            : Popstar.Never.Stop.Never.Stopping.2016.REMUX.1080p.BluRay.AVC.DTS-HD.MA5.1-iFT\Popstar.Never.Stop.Never.Stopping.2016.REMUX.1080p.BluRay.AVC.DTS-HD.MA5.1-iFT.mkv
Format                                   : Matroska
Format version                           : Version 4 / Version 2
File size                                : 21.0 GiB
Duration                                 : 1 h 26 min
Overall bit rate mode                    : Variable
Overall bit rate                         : 34.7 Mb/s
Encoded date                             : UTC 2016-09-04 04:16:45
Writing application                      : mkvmerge v8.9.0 ('Father Daughter') 64bit
Writing library                          : libebml v1.3.3 + libmatroska v1.4.4

Video
ID                                       : 1
Format                                   : AVC
Format/Info                              : Advanced Video Codec
Format profile                           : High@L4.1
Format settings, CABAC                   : Yes
Format settings, ReFrames                : 4 frames
Codec ID                                 : V_MPEG4/ISO/AVC
Duration                                 : 1 h 26 min
Bit rate mode                            : Variable
Bit rate                                 : 31.0 Mb/s
Maximum bit rate                         : 35.0 Mb/s
Width                                    : 1 920 pixels
Height                                   : 1 080 pixels
Display aspect ratio                     : 16:9
Frame rate mode                          : Constant
Frame rate                               : 23.976 (24000/1001) FPS
Color space                              : YUV
Chroma subsampling                       : 4:2:0
Bit depth                                : 8 bits
Scan type                                : Progressive
Bits/(Pixel*Frame)                       : 0.624
Stream size                              : 18.7 GiB (89%)
Default                                  : Yes
Forced                                   : No

Audio
ID                                       : 2
Format                                   : DTS
Format/Info                              : Digital Theater Systems
Format profile                           : MA / Core
Mode                                     : 16
Format settings, Endianness              : Big
Codec ID                                 : A_DTS
Duration                                 : 1 h 26 min
Bit rate mode                            : Variable / Constant
Bit rate                                 : 3 639 kb/s / 1 509 kb/s
Channel(s)                               : 6 channels
Channel positions                        : Front: L C R, Side: L R, LFE
Sampling rate                            : 48.0 kHz
Frame rate                               : 93.750 FPS (512 spf)
Bit depth                                : 24 bits
Compression mode                         : Lossless / Lossy
Stream size                              : 2.20 GiB (10%)
Default                                  : Yes
Forced                                   : No

Text #1
ID                                       : 3
Format                                   : PGS
Muxing mode                              : zlib
Codec ID                                 : S_HDMV/PGS
Codec ID/Info                            : Picture based subtitle format used on BDs/HD-DVDs
Duration                                 : 1 h 25 min
Bit rate                                 : 23.1 kb/s
Count of elements                        : 3840
Stream size                              : 14.2 MiB (0%)
Default                                  : Yes
Forced                                   : No

Text #2
ID                                       : 4
Format                                   : PGS
Muxing mode                              : zlib
Codec ID                                 : S_HDMV/PGS
Codec ID/Info                            : Picture based subtitle format used on BDs/HD-DVDs
Duration                                 : 1 h 25 min
Bit rate                                 : 19.5 kb/s
Count of elements                        : 3505
Stream size                              : 12.0 MiB (0%)
Default                                  : No
Forced                                   : No

Text #3
ID                                       : 5
Format                                   : PGS
Muxing mode                              : zlib
Codec ID                                 : S_HDMV/PGS
Codec ID/Info                            : Picture based subtitle format used on BDs/HD-DVDs
Duration                                 : 1 h 25 min
Bit rate                                 : 19.2 kb/s
Count of elements                        : 3494
Stream size                              : 11.8 MiB (0%)
Default                                  : No
Forced                                   : No

Text #4
ID                                       : 6
Format                                   : PGS
Muxing mode                              : zlib
Codec ID                                 : S_HDMV/PGS
Codec ID/Info                            : Picture based subtitle format used on BDs/HD-DVDs
Duration                                 : 1 h 25 min
Bit rate                                 : 4 102 b/s
Count of elements                        : 654
Stream size                              : 2.51 MiB (0%)
Default                                  : No
Forced                                   : No

Text #5
ID                                       : 7
Format                                   : PGS
Muxing mode                              : zlib
Codec ID                                 : S_HDMV/PGS
Codec ID/Info                            : Picture based subtitle format used on BDs/HD-DVDs
Duration                                 : 1 h 25 min
Bit rate                                 : 4 296 b/s
Count of elements                        : 682
Stream size                              : 2.62 MiB (0%)
Default                                  : No
Forced                                   : No

Menu
00:00:00.000                             : en:Chapter 01
00:05:54.479                             : en:Chapter 02
00:09:26.566                             : en:Chapter 03
00:14:38.168                             : en:Chapter 04
00:19:34.214                             : en:Chapter 05
00:24:49.279                             : en:Chapter 06
00:28:27.539                             : en:Chapter 07
00:31:45.069                             : en:Chapter 08
00:36:11.669                             : en:Chapter 09
00:40:15.579                             : en:Chapter 10
00:43:03.914                             : en:Chapter 11
00:46:44.092                             : en:Chapter 12
00:51:06.813                             : en:Chapter 13
00:54:38.775                             : en:Chapter 14
00:59:17.845                             : en:Chapter 15
01:05:15.161                             : en:Chapter 16
01:08:43.077                             : en:Chapter 17
01:13:13.597                             : en:Chapter 18
01:16:52.941                             : en:Chapter 19
01:22:29.736                             : en:Chapter 20

Скриншоты:



Время раздачи: с 13:00 до 23:00
[NNMClub.to]_Popstar.Never.Stop.Never.Stopping.2016.REMUX.1080p.BluRay.AVC.DTS-HD.MA5.1-iFT.mkv.torrent
 Торрент: Золотая раздача  Зарегистрирован
 
Примагнититься
Free Leech
Зарегистрируйтесь и скачайте торрент!
105 KB
 Зарегистрирован:   04 Сен 2016 17:23:58
 Размер:   21 GB  (
 Рейтинг:    (Голосов: 2)
 Поблагодарили:   28
 Проверка:   Оформление проверено модератором 04 Сен 2016 17:25:13
Как cкачать  ·  Как раздать  ·  Правильно оформить  ·  Поднять ратио!  
Показать сообщения:   
Начать новую тему   Ответить на тему    Торрент-трекер NNM-Club -> Зарубежное кино -> Фильмы в оригинале (HD) Часовой пояс: GMT + 3
Страница 1 из 1