Интеллигентный торрент-трекер
canvas not supported
Нас вместе: 4 330 900

Такой же предатель, как и мы / Our Kind of Traitor (2016) BDRip [H.264/720p] [EN]


 
 
RSS
Начать новую тему   Ответить на тему    Торрент-трекер NNM-Club -> Зарубежное кино -> Фильмы в оригинале (HD)
Автор Сообщение
smaster67 ®
Модератор Видео
Покровитель талантов Uploader 300+

Online
Стаж: 8 лет
Сообщений: 6668
Ratio: 202,663
Поблагодарили: 194077
100%
Такой же предатель, как и мы / Our Kind of Traitor (2016) BDRip [H.264/720p] [EN]

Производство: Великобритания, Франция
Жанр: триллер

Режиссер: Сюзанна Уайт
Актеры: Карлос Акоста, Радивойе Буквич, Стеллан Скарсгард, Мария Фомина, Доля Гавански, Григорий Добрыгин, Велибор Топич, Павел Жайда, Юэн МакГрегор, Наоми Харрис, Алек Утгофф, Марек Оравек

Описание:
Молодая английская пара, отдыхая в Марокко, заводит знакомство с русским олигархом, отмывающим деньги для преступных группировок, чьи лидеры вот-вот спишут его со счетов. Чтобы спасти себя и семью, он предлагает разведке Великобритании море ценных сведений в обмен на защиту и покровительство. Его последняя отчаянная надежда - на «английских джентльменов», которые всегда «играют честно»...



Продолжительность: 01:47:36
Качество видео: BDRip
Перевод: Отсутствует
Язык озвучки: Английский

Видео: AVC, 1280x536 (2.40:1), 5046 kbps, 24 fps, 0,306 bpp
Аудио: английский / DTS / 5.1 / 48 kHz / 768 kbps / 24 bit
Код: выделить все
General
Unique ID
Complete name                           Our.Kind.of.Traitor.2016.720p.mkv
Format                                   : Matroska
Format version                           : Version 4 / Version 2
File size                                : 4.37 GiB
Duration                                 : 1 h 47 min
Overall bit rate                         : 5 817 kb/s
Encoded date                             : UTC 2016-09-04 03:19:25
Writing application                      : mkvmerge v8.3.0 ('Over the Horizon') 64bit
Writing library                          : libebml v1.3.1 + libmatroska v1.4.2

Video
ID                                       : 1
Format                                   : AVC
Format/Info                              : Advanced Video Codec
Format profile                           : High@L4.1
Format settings, CABAC                   : Yes
Format settings, ReFrames                : 5 frames
Codec ID                                 : V_MPEG4/ISO/AVC
Duration                                 : 1 h 47 min
Bit rate                                 : 5 046 kb/s
Width                                    : 1 280 pixels
Height                                   : 536 pixels
Display aspect ratio                     : 2.40:1
Frame rate mode                          : Constant
Frame rate                               : 24.000 FPS
Color space                              : YUV
Chroma subsampling                       : 4:2:0
Bit depth                                : 8 bits
Scan type                                : Progressive
Bits/(Pixel*Frame)                       : 0.306
Stream size                              : 3.79 GiB (87%)
Writing library                          : x264 core 148 r2692 64f4e24
Encoding settings                        : cabac=1 / ref=5 / deblock=1:0:0 / analyse=0x3:0x133 / me=umh / subme=7 / psy=1 / psy_rd=1.00:0.00 / mixed_ref=1 / me_range=16 / chroma_me=1 / trellis=1 / 8x8dct=1 / cqm=0 / deadzone=21,11 / fast_pskip=0 / chroma_qp_offset=-2 / threads=17 / lookahead_threads=2 / sliced_threads=0 / nr=0 / decimate=1 / interlaced=0 / bluray_compat=0 / constrained_intra=0 / bframes=3 / b_pyramid=2 / b_adapt=1 / b_bias=0 / direct=1 / weightb=1 / open_gop=0 / weightp=2 / keyint=250 / keyint_min=23 / scenecut=40 / intra_refresh=0 / rc_lookahead=40 / rc=2pass / mbtree=1 / bitrate=5046 / ratetol=1.0 / qcomp=0.60 / qpmin=0 / qpmax=69 / qpstep=4 / cplxblur=20.0 / qblur=0.5 / ip_ratio=1.40 / aq=1:1.00
Language                                 : English
Default                                  : Yes
Forced                                   : No

Audio
ID                                       : 2
Format                                   : DTS
Format/Info                              : Digital Theater Systems
Mode                                     : 16
Format settings, Endianness              : Big
Codec ID                                 : A_DTS
Duration                                 : 1 h 47 min
Bit rate mode                            : Constant
Bit rate                                 : 768 kb/s
Channel(s)                               : 6 channels
Channel positions                        : Front: L C R, Side: L R, LFE
Sampling rate                            : 48.0 kHz
Frame rate                               : 93.750 FPS (512 spf)
Bit depth                                : 24 bits
Compression mode                         : Lossy
Stream size                              : 591 MiB (13%)
Language                                 : English
Default                                  : Yes
Forced                                   : No

Menu
00:00:00.000                             : en:00:00:00.000
00:07:50.917                             : en:00:07:50.917
00:15:23.208                             : en:00:15:23.208
00:24:40.625                             : en:00:24:40.625
00:38:49.833                             : en:00:38:49.833
00:43:41.792                             : en:00:43:41.792
00:58:08.958                             : en:00:58:08.958
01:07:19.333                             : en:01:07:19.333
01:13:50.417                             : en:01:13:50.417
01:17:30.167                             : en:01:17:30.167
01:35:39.292                             : en:01:35:39.292
01:41:33.542                             : en:01:41:33.542

Скриншоты:



Время раздачи: с 13:00 до 23:00
[NNMClub.to]_Our.Kind.of.Traitor.2016.720p.mkv.torrent
 Торрент: Серебряная раздча  Зарегистрирован
 
Примагнититься
Free Leech
Зарегистрируйтесь и скачайте торрент!
22,1 KB
 Зарегистрирован:   04 Сен 2016 17:44:19
 Размер:   4,37 GB  (
 Рейтинг:   3 (Голосов: 11)
 Поблагодарили:   55
 Проверка:   Оформление проверено модератором 04 Сен 2016 17:46:05
Как cкачать  ·  Как раздать  ·  Правильно оформить  ·  Поднять ратио!  
owao
Стаж: 2 года 5 мес.
Сообщений: 31
Ratio: 11,121
100%
russia.gif
Описание: ........заводит знакомство с русским олигархом...... до свидания. Раздающему спасибо.
crabonog
Стаж: 2 года 8 мес.
Сообщений: 32
Ratio: 7,414
100%
krevedko.png
МакГрегор явно ошибся фильмом, еле досмотрел это уныние.
Powncakes
Стаж: 5 лет 8 мес.
Сообщений: 8
Ratio: 21,127
0.46%
Откуда: Internet
russia.gif
Вытерпел пол фильма, качать не советую.
Показать сообщения:   
Начать новую тему   Ответить на тему    Торрент-трекер NNM-Club -> Зарубежное кино -> Фильмы в оригинале (HD) Часовой пояс: GMT + 3
Страница 1 из 1