Интеллигентный торрент-трекер
canvas not supported
Нас вместе: 4 193 066

Флоренс Фостер Дженкинс / Florence Foster Jenkins (2016) BDRemux [H.264/1080p] [EN / EN Sub]


 
 
RSS
Начать новую тему   Ответить на тему    Торрент-трекер NNM-Club -> Зарубежное кино -> Фильмы в оригинале (HD)
Автор Сообщение
smaster67 ®
Модератор Видео
Покровитель талантов Uploader 300+
Стаж: 7 лет 6 мес.
Сообщений: 6389
Ratio: 186,542
Поблагодарили: 179921
100%
Флоренс Фостер Дженкинс / Florence Foster Jenkins (2016) BDRemux [H.264/1080p] [EN / EN Sub]

Производство: Великобритания
Жанр: драма, комедия, биография

Режиссер: Стивен Фрирз
Актеры: Мэрил Стрип, Хью Грант, Саймон Хелберг, Ребекка Фергюсон, Нина Арианда, Стэнли Таунсенд, Аллан Кордунер, Кристиан МакКэй, Дэвид Хэйг, Джон Сешнс, Брид Бреннан, Джон Кэвэна

Описание:
История Флоренс Фостер Дженкинс, девушки из богатой нью-йоркской семьи, которая мечтала стать оперной певицей, несмотря на то, что имела ужасный голос.



Продолжительность: 01:50:12
Качество видео: BDRemux
Перевод: Отсутствует
Язык озвучки: Английский
Язык субтитров: английский
Вид субтитров: Вшитые

Видео: AVC, 1920x1080 (16:9), 29863 kbps, 24 fps, 0,600 bpp
Аудио: DTS-HD / 5.1 / 48 kHz / 2147 kbps / 16 bit (Core: 5.1 / 48 kHz / 1509 kbps / 16 bit)
Код:
General
Unique ID
Complete name                            : Florence.Foster.Jenkins.2016.REMUX.BluRay.1080p.AVC.DTS-HD.MA5.1-iFT\Florence.Foster.Jenkins.2016.REMUX.BluRay.1080p.AVC.DTS-HD.MA5.1-iFT.mkv
Format                                   : Matroska
Format version                           : Version 4 / Version 2
File size                                : 24.7 GiB
Duration                                 : 1 h 50 min
Overall bit rate mode                    : Variable
Overall bit rate                         : 32.0 Mb/s
Encoded date                             : UTC 2016-09-05 01:02:20
Writing application                      : mkvmerge v8.5.1 ('Where you lead I will follow') 64bit
Writing library                          : libebml v1.3.3 + libmatroska v1.4.4

Video
ID                                       : 1
Format                                   : AVC
Format/Info                              : Advanced Video Codec
Format profile                           : High@L4.1
Format settings, CABAC                   : Yes
Format settings, ReFrames                : 4 frames
Codec ID                                 : V_MPEG4/ISO/AVC
Duration                                 : 1 h 50 min
Bit rate mode                            : Variable
Bit rate                                 : 29.9 Mb/s
Maximum bit rate                         : 33.0 Mb/s
Width                                    : 1 920 pixels
Height                                   : 1 080 pixels
Display aspect ratio                     : 16:9
Frame rate mode                          : Constant
Frame rate                               : 24.000 FPS
Color space                              : YUV
Chroma subsampling                       : 4:2:0
Bit depth                                : 8 bits
Scan type                                : Progressive
Bits/(Pixel*Frame)                       : 0.600
Stream size                              : 23.0 GiB (93%)
Default                                  : No
Forced                                   : No

Audio
ID                                       : 2
Format                                   : DTS
Format/Info                              : Digital Theater Systems
Format profile                           : MA / Core
Mode                                     : 16
Format settings, Endianness              : Big
Codec ID                                 : A_DTS
Duration                                 : 1 h 50 min
Bit rate mode                            : Variable / Constant
Bit rate                                 : 2 148 kb/s / 1 509 kb/s
Channel(s)                               : 6 channels
Channel positions                        : Front: L C R, Side: L R, LFE
Sampling rate                            : 48.0 kHz
Frame rate                               : 93.750 FPS (512 spf)
Bit depth                                : 16 bits
Compression mode                         : Lossless / Lossy
Stream size                              : 1.65 GiB (7%)
Default                                  : Yes
Forced                                   : No

Text
ID                                       : 3
Format                                   : PGS
Muxing mode                              : zlib
Codec ID                                 : S_HDMV/PGS
Codec ID/Info                            : Picture based subtitle format used on BDs/HD-DVDs
Duration                                 : 1 h 44 min
Bit rate                                 : 11.7 kb/s
Count of elements                        : 3032
Stream size                              : 8.75 MiB (0%)
Language                                 : English
Default                                  : Yes
Forced                                   : No

Menu
00:00:00.000                             : en:00:00:00.000
00:09:05.042                             : en:00:09:05.042
00:20:49.750                             : en:00:20:49.750
00:28:58.792                             : en:00:28:58.792
00:37:58.167                             : en:00:37:58.167
00:46:27.333                             : en:00:46:27.333
00:56:35.500                             : en:00:56:35.500
01:06:49.125                             : en:01:06:49.125
01:14:43.000                             : en:01:14:43.000
01:21:12.750                             : en:01:21:12.750
01:30:33.667                             : en:01:30:33.667
01:43:45.458                             : en:01:43:45.458

Скриншоты:



Время раздачи: с 13:00 до 23:00
[NNMClub.to]_Florence.Foster.Jenkins.2016.REMUX.BluRay.1080p.AVC.DTS-HD.MA5.1-iFT.mkv.torrent
 Торрент: Золотая раздача  Зарегистрирован
 
Примагнититься

Зарегистрируйтесь и скачайте торрент!
123 KB
 Зарегистрирован:   05 Сен 2016 08:16:11
 Размер:   24,7 GB  (
 Рейтинг:    (Голосов: 4)
 Поблагодарили:   38
 Проверка:   Оформление проверено модератором 05 Сен 2016 08:16:56
Как cкачать  ·  Как раздать  ·  Правильно оформить  ·  Поднять ратио!  
Показать сообщения:   
Начать новую тему   Ответить на тему    Торрент-трекер NNM-Club -> Зарубежное кино -> Фильмы в оригинале (HD) Часовой пояс: GMT + 3
Страница 1 из 1