Интеллигентный торрент-трекер
canvas not supported
Нас вместе: 4 346 936

Михаил Задорнов. Интервью (2016) WEB-DLRip


 
 
RSS
Начать новую тему   Ответить на тему    Торрент-трекер NNM-Club -> Юмор -> Сатирики
Автор Сообщение
svlesin ®
Модератор Документалистики/TV
RG Releasers
Релизер 24000+ Uploader 200+
 
Стаж: 7 лет 6 мес.
Сообщений: 31732
Ratio: 1294,19
Поблагодарили: 3024517
100%
russia.gif
Михаил Задорнов. Интервью (2016) WEB-DLRip
Телекомпания: Красная линия
Жанр: Интервью

Описание:
Предлагаем вашему вниманию интервью известного российского писателя-сатирика Михаила Задорнова, которое он дал интернет-каналу "Красная Линия" в начале сентября 2016 года

Продолжительность: ~ 00:40:51
Качество видео: WEB-DLRip
Субтитры: Отсутствуют

Видео: MPEG4, XviD, 704x384 (16:9), 25.000 fps, 1 698 Kbps (0.251 bit/pixel)
Аудио: MP3, 48.0 KHz, 2 ch, 128 Kbps, CBR
Код:
 Общее
Полное имя                               : D:\[1]\Задорнов\Михаил Задорнов. Интервью (2016).avi
Формат                                   : AVI
Формат/Информация                        : Audio Video Interleave
Размер файла                             : 536 Мбайт
Продолжительность                        : 40 м.
Общий поток                              : 1835 Кбит/сек
Программа кодирования                    : VirtualDubMod 1.5.10.3 | www.virtualdub-fr.org || (build 2550/release)
Библиотека кодирования                   : VirtualDubMod build 2550/release

Видео
Идентификатор                            : 0
Формат                                   : MPEG-4 Visual
Профиль формата                          : Advanced Simple@L5
Параметр BVOP формата                    : 1
Параметр QPel формата                    : Нет
Параметр GMC формата                     : Без точки перехода
Параметр матрицы формата                 : Default (H.263)
Идентификатор кодека                     : XVID
Идентификатор кодека/Подсказка           : XviD
Продолжительность                        : 40 м.
Битрейт                                  : 1698 Кбит/сек
Ширина                                   : 704 пикселя
Высота                                   : 384 пикселя
Соотношение сторон                       : 1,85:1
Частота кадров                           : 25,000 кадров/сек
Цветовое пространство                    : YUV
Субдискретизация насыщенности            : 4:2:0
Битовая глубина                          : 8 бит
Тип развёртки                            : Прогрессивная
Метод сжатия                             : С потерями
Бит/(Пиксели*Кадры)                      : 0.251
Размер потока                            : 496 Мбайт (92%)
Библиотека кодирования                   : XviD 1.2.1 (UTC 2008-12-04)

Аудио
Идентификатор                            : 1
Формат                                   : MPEG Audio
Версия формата                           : Version 1
Профиль формата                          : Layer 3
Идентификатор кодека                     : 55
Идентификатор кодека/Подсказка           : MP3
Продолжительность                        : 40 м.
Вид битрейта                             : Постоянный
Битрейт                                  : 128 Кбит/сек
Каналы                                   : 2 канала
Частота                                  : 48,0 КГц
Метод сжатия                             : С потерями
Размер потока                            : 37,4 Мбайт (7%)
Выравнивание                             : Соединение по промежуткам
Продолжительность промежутка             : 40  мс. (1,00 видеокадр)
Время предзагрузки промежутка            : 504  мс.
Библиотека кодирования                   : LAME3.99r
Настройки программы                      : -m s -V 4 -q 2 -lowpass 17 -b 128
 
Скриншоты:



Все одноименные релизы в Клубе
Время раздачи: 24/7. До первых 5 скачавших.
[NNMClub.to]_Mihail Zadornov. Interv'yu (2016).avi.torrent
 Торрент: Платиновая раздача  Зарегистрирован
 
Примагнититься

Скачать
 Зарегистрирован:   05 Сен 2016 22:29:58
 Размер:   536 MB  (
 Рейтинг:   3,2 (Голосов: 71)
 Поблагодарили:   164
 Проверка:   Оформление проверено модератором 05 Сен 2016 22:30:28
Как cкачать  ·  Как раздать  ·  Правильно оформить  ·  Поднять ратио!  
Загрузка...
ljvjkbyr
Стаж: 7 лет 4 мес.
Сообщений: 12
Ratio: 5,249
0.02%
russia.gif
Умница. Отличное интервью. Вот что значит, человек ИМЕЕТ СВОЁ СОБСТВЕННОЕ МНЕНИЕ.
Bobbss
Стаж: 5 лет 2 мес.
Сообщений: 27
Ratio: 0,801
3.49%
После навязчивой уродливой рекламы "Салтыков-..."
я его, мягко говоря, терпеть не могу.
Залихман
Стаж: 1 год
Сообщений: 117
Ratio: 0,473
94.44%
sweden.gif
чет постер не соответствует фильму. на постере ему на вид 50 на видио 70
Показать сообщения:   
Начать новую тему   Ответить на тему    Торрент-трекер NNM-Club -> Юмор -> Сатирики Часовой пояс: GMT + 3
Страница 1 из 1