Интеллигентный торрент-трекер
canvas not supported
Нас вместе: 4 307 576

Этажом ниже / The Ones Below (2015) BDRip [H.264/720p] [EN]


 
 
RSS
Начать новую тему   Ответить на тему    Торрент-трекер NNM-Club -> Зарубежное кино -> Фильмы в оригинале (HD)
Автор Сообщение
smaster67 ®
Модератор Видео
Покровитель талантов Uploader 300+
Стаж: 7 лет 8 мес.
Сообщений: 6590
Ratio: 192,794
Поблагодарили: 190066
100%
Этажом ниже / The Ones Below (2015) BDRip [H.264/720p] [EN]

Производство: Великобритания
Жанр: триллер

Режиссер: Дэвид Фарр
Актеры: Клеманс Поэзи, Дэвид Моррисси, Стивен Кэмпбелл Мур, Лаура Бирн, Дебора Файндлей, Наташа Алдерслэйд, Лайла Ай, Фрэнсис Эшман, Алекс Эйвери, Грэйс Калдер, Туен До, Джонатан Харден

Описание:
У семейной пары Кейт и Джастина, ждущей желанного и уже любимого первого ребенка, появляются этажом ниже соседи, тоже в ожидании первенца. Беременная соседка теряет ребенка в результате несчастного случая, обвиняя в этом своих новых друзей сверху. А дальше в жизни у Кейт и Джастина начинают происходить странные вещи...



Продолжительность: 01:26:15
Качество видео: BDRip
Перевод: Отсутствует
Язык озвучки: Английский

Видео: AVC, 1280x688 (1.85:1), 5744 kbps, 23,976 fps, 0,272 bpp
Аудио: английский / DTS / 5.1 / 48 kHz / 1509 kbps / 24 bit
Код:
General
Unique ID
Complete name                          The.Ones.Below.2015.720p.mkv
Format                                   : Matroska
Format version                           : Version 4 / Version 2
File size                                : 4.37 GiB
Duration                                 : 1 h 26 min
Overall bit rate                         : 7 254 kb/s
Encoded date                             : UTC 2016-08-27 10:49:28
Writing application                      : mkvmerge v8.3.0 ('Over the Horizon') 64bit
Writing library                          : libebml v1.3.1 + libmatroska v1.4.2

Video
ID                                       : 1
Format                                   : AVC
Format/Info                              : Advanced Video Codec
Format profile                           : High@L4.1
Format settings, CABAC                   : Yes
Format settings, ReFrames                : 5 frames
Codec ID                                 : V_MPEG4/ISO/AVC
Duration                                 : 1 h 26 min
Bit rate                                 : 5 744 kb/s
Width                                    : 1 280 pixels
Height                                   : 688 pixels
Display aspect ratio                     : 1.85:1
Frame rate mode                          : Constant
Frame rate                               : 23.976 FPS
Color space                              : YUV
Chroma subsampling                       : 4:2:0
Bit depth                                : 8 bits
Scan type                                : Progressive
Bits/(Pixel*Frame)                       : 0.272
Stream size                              : 3.46 GiB (79%)
Writing library                          : x264 core 148 r2692 64f4e24
Encoding settings                        : cabac=1 / ref=5 / deblock=1:0:0 / analyse=0x3:0x133 / me=umh / subme=7 / psy=1 / psy_rd=1.00:0.00 / mixed_ref=1 / me_range=16 / chroma_me=1 / trellis=1 / 8x8dct=1 / cqm=0 / deadzone=21,11 / fast_pskip=0 / chroma_qp_offset=-2 / threads=21 / lookahead_threads=3 / sliced_threads=0 / nr=0 / decimate=1 / interlaced=0 / bluray_compat=0 / constrained_intra=0 / bframes=3 / b_pyramid=2 / b_adapt=1 / b_bias=0 / direct=1 / weightb=1 / open_gop=0 / weightp=2 / keyint=250 / keyint_min=23 / scenecut=40 / intra_refresh=0 / rc_lookahead=40 / rc=2pass / mbtree=1 / bitrate=5744 / ratetol=1.0 / qcomp=0.60 / qpmin=0 / qpmax=69 / qpstep=4 / cplxblur=20.0 / qblur=0.5 / ip_ratio=1.40 / aq=1:1.00
Language                                 : English
Default                                  : Yes
Forced                                   : No

Audio
ID                                       : 2
Format                                   : DTS
Format/Info                              : Digital Theater Systems
Mode                                     : 16
Format settings, Endianness              : Big
Codec ID                                 : A_DTS
Duration                                 : 1 h 26 min
Bit rate mode                            : Constant
Bit rate                                 : 1 509 kb/s
Channel(s)                               : 6 channels
Channel positions                        : Front: L C R, Side: L R, LFE
Sampling rate                            : 48.0 kHz
Frame rate                               : 93.750 FPS (512 spf)
Bit depth                                : 24 bits
Compression mode                         : Lossy
Stream size                              : 931 MiB (21%)
Language                                 : English
Default                                  : Yes
Forced                                   : No

Menu
00:00:00.000                             : en:00:00:00.000
00:07:42.754                             : en:00:07:42.754
00:13:35.064                             : en:00:13:35.064
00:23:48.302                             : en:00:23:48.302
00:29:28.976                             : en:00:29:28.976
00:36:43.952                             : en:00:36:43.952
00:41:08.174                             : en:00:41:08.174
00:49:04.275                             : en:00:49:04.275
00:57:59.476                             : en:00:57:59.476
01:08:11.963                             : en:01:08:11.963
01:12:34.225                             : en:01:12:34.225
01:21:36.850                             : en:01:21:36.850

Скриншоты:



Время раздачи: с 13:00 до 23:00
[NNMClub.to]_The.Ones.Below.2015.720p.mkv.torrent
 Торрент: Серебряная раздча  Зарегистрирован
 
Примагнититься
Free Leech
Зарегистрируйтесь и скачайте торрент!
22 KB
 Зарегистрирован:   06 Сен 2016 17:49:33
 Размер:   4,37 GB  (
 Рейтинг:    (Голосов: 4)
 Поблагодарили:   33
 Проверка:   Оформление проверено модератором 06 Сен 2016 17:49:53
Как cкачать  ·  Как раздать  ·  Правильно оформить  ·  Поднять ратио!  
Показать сообщения:   
Начать новую тему   Ответить на тему    Торрент-трекер NNM-Club -> Зарубежное кино -> Фильмы в оригинале (HD) Часовой пояс: GMT + 3
Страница 1 из 1