Интеллигентный торрент-трекер
canvas not supported
Нас вместе: 4 253 571

Такой же предатель, как и мы / Our Kind of Traitor (2016) BDRemux [H.264/1080p] [EN / EN Sub]


 
 
RSS
Начать новую тему   Ответить на тему    Торрент-трекер NNM-Club -> Зарубежное кино -> Фильмы в оригинале (HD)
Автор Сообщение
smaster67 ®
Модератор Видео
Покровитель талантов Uploader 300+
Стаж: 7 лет 7 мес.
Сообщений: 6488
Ratio: 188,605
Поблагодарили: 185082
100%
Такой же предатель, как и мы / Our Kind of Traitor (2016) BDRemux [H.264/1080p] [EN / EN Sub]

Производство: Великобритания, Франция
Жанр: триллер

Режиссер: Сюзанна Уайт
Актеры: Карлос Акоста, Радивойе Буквич, Стеллан Скарсгард, Мария Фомина, Доля Гавански, Григорий Добрыгин, Велибор Топич, Павел Жайда, Юэн МакГрегор, Наоми Харрис, Алек Утгофф, Марек Оравек

Описание:
Молодая английская пара, отдыхая в Марокко, заводит знакомство с русским олигархом, отмывающим деньги для преступных группировок, чьи лидеры вот-вот спишут его со счетов. Чтобы спасти себя и семью, он предлагает разведке Великобритании море ценных сведений в обмен на защиту и покровительство. Его последняя отчаянная надежда - на «английских джентльменов», которые всегда «играют честно»...



Продолжительность: 01:47:36
Качество видео: BDRemux
Перевод: Отсутствует
Язык озвучки: Английский
Язык субтитров: Английский
Вид субтитров: Вшитые

Видео: AVC, 1920x1080 (16:9), 34737 kbps, 24 fps, 0,698 bpp
Аудио: DTS-HD / 5.1 / 48 kHz / 3607 kbps / 24 bit (Core: 5.1 / 48 kHz / 768 kbps / 24 bit)
Код:
General
Unique ID
Complete name                            Our.Kind.of.Traitor.2016.REMUX.BluRay.1080p.AVC.DTS-HD.MA5.1-iFT\Our.Kind.of.Traitor.2016.REMUX.BluRay.1080p.AVC.DTS-HD.MA5.1-iFT.mkv
Format                                   : Matroska
Format version                           : Version 4 / Version 2
File size                                : 28.8 GiB
Duration                                 : 1 h 47 min
Overall bit rate mode                    : Variable
Overall bit rate                         : 38.4 Mb/s
Encoded date                             : UTC 2016-09-07 03:24:34
Writing application                      : mkvmerge v8.5.1 ('Where you lead I will follow') 64bit
Writing library                          : libebml v1.3.3 + libmatroska v1.4.4

Video
ID                                       : 1
Format                                   : AVC
Format/Info                              : Advanced Video Codec
Format profile                           : High@L4.1
Format settings, CABAC                   : Yes
Format settings, ReFrames                : 4 frames
Codec ID                                 : V_MPEG4/ISO/AVC
Duration                                 : 1 h 47 min
Bit rate mode                            : Variable
Bit rate                                 : 34.7 Mb/s
Maximum bit rate                         : 37.0 Mb/s
Width                                    : 1 920 pixels
Height                                   : 1 080 pixels
Display aspect ratio                     : 16:9
Frame rate mode                          : Constant
Frame rate                               : 24.000 FPS
Color space                              : YUV
Chroma subsampling                       : 4:2:0
Bit depth                                : 8 bits
Scan type                                : Progressive
Bits/(Pixel*Frame)                       : 0.698
Stream size                              : 26.1 GiB (91%)
Default                                  : No
Forced                                   : No

Audio
ID                                       : 2
Format                                   : DTS
Format/Info                              : Digital Theater Systems
Format profile                           : MA / Core
Mode                                     : 16
Format settings, Endianness              : Big
Codec ID                                 : A_DTS
Duration                                 : 1 h 47 min
Bit rate mode                            : Variable / Constant
Bit rate                                 : 3 608 kb/s / 768 kb/s
Channel(s)                               : 6 channels
Channel positions                        : Front: L C R, Side: L R, LFE
Sampling rate                            : 48.0 kHz
Frame rate                               : 93.750 FPS (512 spf)
Bit depth                                : 24 bits
Compression mode                         : Lossless / Lossy
Stream size                              : 2.71 GiB (9%)
Default                                  : Yes
Forced                                   : No

Text
ID                                       : 3
Format                                   : PGS
Muxing mode                              : zlib
Codec ID                                 : S_HDMV/PGS
Codec ID/Info                            : Picture based subtitle format used on BDs/HD-DVDs
Duration                                 : 1 h 40 min
Bit rate                                 : 10.8 kb/s
Count of elements                        : 2792
Stream size                              : 7.71 MiB (0%)
Default                                  : Yes
Forced                                   : No

Menu
00:00:00.000                             : en:00:00:00.000
00:07:50.917                             : en:00:07:50.917
00:15:23.208                             : en:00:15:23.208
00:24:40.625                             : en:00:24:40.625
00:38:49.833                             : en:00:38:49.833
00:43:41.792                             : en:00:43:41.792
00:58:08.958                             : en:00:58:08.958
01:07:19.333                             : en:01:07:19.333
01:13:50.417                             : en:01:13:50.417
01:17:30.167                             : en:01:17:30.167
01:35:39.292                             : en:01:35:39.292
01:41:33.542                             : en:01:41:33.542

Скриншоты:



Время раздачи: с 13:00 до 23:00
[NNMClub.to]_Our.Kind.of.Traitor.2016.REMUX.BluRay.1080p.AVC.DTS-HD.MA5.1-iFT.mkv.torrent
 Торрент: Золотая раздача  Зарегистрирован
 
Примагнититься
Free Leech
Зарегистрируйтесь и скачайте торрент!
144 KB
 Зарегистрирован:   07 Сен 2016 08:15:13
 Размер:   28,8 GB  (
 Рейтинг:    (Голосов: 6)
 Поблагодарили:   43
 Проверка:   Оформление проверено модератором 07 Сен 2016 08:16:17
Как cкачать  ·  Как раздать  ·  Правильно оформить  ·  Поднять ратио!  
Показать сообщения:   
Начать новую тему   Ответить на тему    Торрент-трекер NNM-Club -> Зарубежное кино -> Фильмы в оригинале (HD) Часовой пояс: GMT + 3
Страница 1 из 1