Интеллигентный торрент-трекер
canvas not supported
Нас вместе: 4 331 963

Пустынная бухта / Hollow Creek (2016) BDRip [H.264/1080p] [EN]


 
 
RSS
Начать новую тему   Ответить на тему    Торрент-трекер NNM-Club -> Зарубежное кино -> Фильмы в оригинале (HD)
Автор Сообщение
smaster67 ®
Модератор Видео
Покровитель талантов Uploader 300+

Online
Стаж: 8 лет
Сообщений: 6667
Ratio: 202,601
Поблагодарили: 194042
100%
Пустынная бухта / Hollow Creek (2016) BDRip [H.264/1080p] [EN]

Производство: США
Жанр: ужасы, триллер, криминал, детектив

Режиссер: Гизелла Моро
Актеры: Стив Дарон, Гизелла Моро, Бёрт Рейнолдс, Тони Рэйчерт, Элин Дарне, Стив Альбертс, Демия Элифф, Шерон Бло, Энтони Боггс

Описание:
Нью-Йоркский писатель Блейк Блэкман в поисках вдохновения и душевного спокойствия со своей возлюбленной Анжеликой убегает из шумного города, чтобы уединиться в уютном горном домике. По прибытию он узнает по местному телевидению, что в горах пропали несколько детей, плюс ко всему, его собака ведет себя очень странно. В итоге романтическая поездка превращается в кошмар после того, как исчезает Анжелика, а Блейк становится главным подозреваемым в её пропаже...



Продолжительность: 01:56:18
Качество видео: BDRip
Перевод: Отсутствует
Язык озвучки: Английский

Видео: AVC, 1920x1080 (16:9), 8652 kbps, 23,976 fps, 0,174 bpp
Аудио: английский / DTS / 5.1 / 48 kHz / 768 kbps / 24 bit
Код: выделить все
General
Unique ID                            Hollow Creek-1080p.mkv
Format                                   : Matroska
Format version                           : Version 4 / Version 2
File size                                : 7.65 GiB
Duration                                 : 1 h 56 min
Overall bit rate                         : 9 419 kb/s
Encoded date                             : UTC 2016-09-06 18:25:38
Writing application                      : mkvmerge v7.5.0 ('Glass Culture') 64bit built on Jan  4 2015 16:48:44
Writing library                          : libebml v1.3.1 + libmatroska v1.4.2

Video
ID                                       : 1
Format                                   : AVC
Format/Info                              : Advanced Video Codec
Format profile                           : High@L4.1
Format settings, CABAC                   : Yes
Format settings, ReFrames                : 4 frames
Codec ID                                 : V_MPEG4/ISO/AVC
Duration                                 : 1 h 56 min
Bit rate                                 : 8 652 kb/s
Width                                    : 1 920 pixels
Height                                   : 1 080 pixels
Display aspect ratio                     : 16:9
Frame rate mode                          : Constant
Frame rate                               : 23.976 (24000/1001) FPS
Color space                              : YUV
Chroma subsampling                       : 4:2:0
Bit depth                                : 8 bits
Scan type                                : Progressive
Bits/(Pixel*Frame)                       : 0.174
Stream size                              : 7.03 GiB (92%)
Title                                    : m-hollowcreek-1080p
Writing library                          : x264 core 148 r2705 3f5ed56
Encoding settings                        : cabac=1 / ref=4 / deblock=1:0:0 / analyse=0x3:0x133 / me=umh / subme=7 / psy=1 / psy_rd=1.00:0.00 / mixed_ref=1 / me_range=16 / chroma_me=1 / trellis=1 / 8x8dct=1 / cqm=0 / deadzone=21,11 / fast_pskip=0 / chroma_qp_offset=-2 / threads=18 / lookahead_threads=3 / sliced_threads=0 / nr=0 / decimate=1 / interlaced=0 / bluray_compat=0 / constrained_intra=0 / bframes=3 / b_pyramid=2 / b_adapt=2 / b_bias=0 / direct=3 / weightb=1 / open_gop=0 / weightp=2 / keyint=250 / keyint_min=23 / scenecut=40 / intra_refresh=0 / rc_lookahead=50 / rc=2pass / mbtree=1 / bitrate=8652 / ratetol=1.0 / qcomp=0.60 / qpmin=0 / qpmax=69 / qpstep=4 / cplxblur=20.0 / qblur=0.5 / ip_ratio=1.40 / aq=1:1.00
Language                                 : English
Default                                  : Yes
Forced                                   : No

Audio
ID                                       : 2
Format                                   : DTS
Format/Info                              : Digital Theater Systems
Mode                                     : 16
Format settings, Endianness              : Big
Codec ID                                 : A_DTS
Duration                                 : 1 h 56 min
Bit rate mode                            : Constant
Bit rate                                 : 768 kb/s
Channel(s)                               : 6 channels
Channel positions                        : Front: L C R, Side: L R, LFE
Sampling rate                            : 48.0 kHz
Frame rate                               : 93.750 FPS (512 spf)
Bit depth                                : 24 bits
Compression mode                         : Lossy
Stream size                              : 639 MiB (8%)
Title                                    : dts
Language                                 : English
Default                                  : Yes
Forced                                   : No

Menu
00:00:00.000                             : en:00:00:00.000
00:11:36.613                             : en:00:11:36.613
00:21:24.325                             : en:00:21:24.325
00:34:33.363                             : en:00:34:33.363
00:45:09.665                             : en:00:45:09.665
00:56:20.460                             : en:00:56:20.460
01:01:44.993                             : en:01:01:44.993
01:12:19.126                             : en:01:12:19.126
01:23:46.313                             : en:01:23:46.313
01:33:51.501                             : en:01:33:51.501
01:44:20.754                             : en:01:44:20.754
01:53:03.151                             : en:01:53:03.151

Скриншоты:



Время раздачи: с 13:00 до 23:00
[NNMClub.to]_Hollow Creek-1080p.mkv.torrent
 Торрент: Золотая раздача  Зарегистрирован
 
Примагнититься
Free Leech
Зарегистрируйтесь и скачайте торрент!
38,5 KB
 Зарегистрирован:   07 Сен 2016 08:58:20
 Размер:   7,65 GB  (
 Рейтинг:   4,7 (Голосов: 12)
 Поблагодарили:   72
 Проверка:   Оформление проверено модератором 07 Сен 2016 08:58:54
Как cкачать  ·  Как раздать  ·  Правильно оформить  ·  Поднять ратио!  
Vspishka24
Стаж: 4 года 7 мес.
Сообщений: 17
Ratio: 4,182
0.25%
russia.gif
Знатный орех на постере
fadet​ogeth​er​
Стаж: 5 лет 5 мес.
Сообщений: 31
Ratio: 39,27
100%
Откуда: NNM-Club
nnm-club.gif
Постер один в один с "Нерожденного":
ivanovjohn
Стаж: 5 лет 10 мес.
Сообщений: 139
Ratio: 1,138
61.77%
russia.gif
fadetogether писал(а): Перейти к сообщению
Постер один в один с "Нерожденного":

+100500 плагиат так и прет :шок:
Показать сообщения:   
Начать новую тему   Ответить на тему    Торрент-трекер NNM-Club -> Зарубежное кино -> Фильмы в оригинале (HD) Часовой пояс: GMT + 3
Страница 1 из 1