Интеллигентный торрент-трекер
canvas not supported
Нас вместе: 4 109 997

До самого конца / All the Way (2016) BDRip [H.264/720p] [EN]


 
 
RSS
Начать новую тему   Ответить на тему    Торрент-трекер NNM-Club -> Зарубежное кино -> Фильмы в оригинале (HD)
Автор Сообщение
smaster67 ®
Модератор Видео
Покровитель талантов Uploader 300+
Стаж: 7 лет 5 мес.
Сообщений: 6270
Ratio: 180,585
Поблагодарили: 174216
100%
До самого конца / All the Way (2016) BDRip [H.264/720p] [EN]

Производство: США
Жанр: драма, биография, история

Режиссер: Джей Роуч
Актеры: Брайан Крэнстон, Энтони Маки, Мелисса Лео, Брэдли Уитфорд, Рэй Уайз, Стивен Рут, Фрэнк Ланджелла, Итэн Филлипс, Джо Мортон, Тоби Хасс, Аиша Хайндс, Кен Дженкинс

Описание:
Линдон Джонсон становится президентом США на волне всеобщего хаоса, вызванного внезапным убийством Джона Кеннеди. В первый же год на посту главы государства Линдон Джонсон способствует принятию Акта о гражданских правах, который положит конец расовой сегрегации на юге страны - по крайней мере на бумаге.



Продолжительность: 02:12:00
Качество видео: BDRip
Перевод: Отсутствует
Язык озвучки: Английский

Видео: AVC, 1280x720 (16:9), 4409 kbps, 23,976 fps, 0,200 bpp
Аудио: английский / DTS / 5.1 / 48 kHz / 1509 kbps / 24 bit
Код:
General
All the Way.2016.720p.mkv
Format                                   : Matroska
Format version                           : Version 4 / Version 2
File size                                : 5.46 GiB
Duration                                 : 2 h 12 min
Overall bit rate                         : 5 920 kb/s
Encoded date                             : UTC 2016-09-07 18:01:51
Writing application                      : mkvmerge v9.4.0 ('Knurl') 64bit
Writing library                          : libebml v1.3.4 + libmatroska v1.4.5

Video
ID                                       : 1
Format                                   : AVC
Format/Info                              : Advanced Video Codec
Format profile                           : High@L4.1
Format settings, CABAC                   : Yes
Format settings, ReFrames                : 5 frames
Codec ID                                 : V_MPEG4/ISO/AVC
Duration                                 : 2 h 12 min
Bit rate                                 : 4 409 kb/s
Width                                    : 1 280 pixels
Height                                   : 720 pixels
Display aspect ratio                     : 16:9
Frame rate mode                          : Constant
Frame rate                               : 23.976 (24000/1001) FPS
Color space                              : YUV
Chroma subsampling                       : 4:2:0
Bit depth                                : 8 bits
Scan type                                : Progressive
Bits/(Pixel*Frame)                       : 0.200
Stream size                              : 4.06 GiB (74%)
Writing library                          : x264 core 148 r2705 3f5ed56
Encoding settings                        : cabac=1 / ref=5 / deblock=1:-3:-3 / analyse=0x3:0x113 / me=umh / subme=8 / psy=1 / psy_rd=1.00:0.00 / mixed_ref=1 / me_range=16 / chroma_me=1 / trellis=1 / 8x8dct=1 / cqm=0 / deadzone=21,11 / fast_pskip=1 / chroma_qp_offset=-2 / threads=22 / lookahead_threads=3 / sliced_threads=0 / nr=0 / decimate=1 / interlaced=0 / bluray_compat=0 / constrained_intra=0 / bframes=3 / b_pyramid=2 / b_adapt=2 / b_bias=0 / direct=3 / weightb=1 / open_gop=0 / weightp=2 / keyint=240 / keyint_min=24 / scenecut=40 / intra_refresh=0 / rc_lookahead=50 / rc=2pass / mbtree=1 / bitrate=4409 / ratetol=1.0 / qcomp=0.60 / qpmin=0 / qpmax=69 / qpstep=4 / cplxblur=20.0 / qblur=0.5 / ip_ratio=1.40 / aq=1:1.00
Default                                  : Yes
Forced                                   : No

Audio
ID                                       : 2
Format                                   : DTS
Format/Info                              : Digital Theater Systems
Mode                                     : 16
Format settings, Endianness              : Big
Codec ID                                 : A_DTS
Duration                                 : 2 h 11 min
Bit rate mode                            : Constant
Bit rate                                 : 1 509 kb/s
Channel(s)                               : 6 channels
Channel positions                        : Front: L C R, Side: L R, LFE
Sampling rate                            : 48.0 kHz
Frame rate                               : 93.750 FPS (512 spf)
Bit depth                                : 24 bits
Compression mode                         : Lossy
Stream size                              : 1.39 GiB (25%)
Language                                 : English
Default                                  : Yes
Forced                                   : No

Menu
00:00:00.000                             : en:00:00:00.000
00:10:48.231                             : en:00:10:48.231
00:21:38.088                             : en:00:21:38.088
00:31:30.055                             : en:00:31:30.055
00:41:33.032                             : en:00:41:33.032
00:50:24.146                             : en:00:50:24.146
01:00:34.339                             : en:01:00:34.339
01:10:44.949                             : en:01:10:44.949
01:19:27.680                             : en:01:19:27.680
01:31:03.166                             : en:01:31:03.166
01:44:14.457                             : en:01:44:14.457
01:55:24.000                             : en:01:55:24.000
02:07:16.629                             : en:02:07:16.629

Скриншоты:



Время раздачи: с 13:00 до 23:00
[NNMClub.to]_All the Way.2016.720p.mkv.torrent
 Торрент: Серебряная раздча  Зарегистрирован
 
Примагнититься
Free Leech
Зарегистрируйтесь и скачайте торрент!
27,5 KB
 Зарегистрирован:   07 Сен 2016 23:53:24
 Размер:   5,46 GB  (
 Рейтинг:    (Голосов: 4)
 Поблагодарили:   32
 Проверка:   Оформление проверено модератором 07 Сен 2016 23:53:52
Как cкачать  ·  Как раздать  ·  Правильно оформить  ·  Поднять ратио!  
Показать сообщения:   
Начать новую тему   Ответить на тему    Торрент-трекер NNM-Club -> Зарубежное кино -> Фильмы в оригинале (HD) Часовой пояс: GMT + 3
Страница 1 из 1