Интеллигентный торрент-трекер
canvas not supported
Нас вместе: 4 108 128

Трэвис / Travis / The Sighting (2015) BDRemux [MPEG-2/1080p] [EN]


 
 
RSS
Начать новую тему   Ответить на тему    Торрент-трекер NNM-Club -> Зарубежное кино -> Фильмы в оригинале (HD)
Автор Сообщение
smaster67 ®
Модератор Видео
Покровитель талантов Uploader 300+
Стаж: 7 лет 5 мес.
Сообщений: 6265
Ratio: 180,416
Поблагодарили: 174068
100%
Трэвис / Travis / The Sighting (2015) BDRemux [MPEG-2/1080p] [EN]

Производство: США
Жанр: ужасы, триллер

Режиссер: Дэвид Блэр , Адам Питман
Актеры: Кент Харпер, Гилл Гэйл, Адам Питман, Натаниель Петерсон, Сарина Харт, Джейм Перкинс, Тони Эрнандез, Лайф Ноэлль, Андра Карлсон, Жасмин Джон, Адам Стивелл

Описание:
Прошел всего год с того времени, как семеро студентов были убиты на вечеринке около озера, что неподалеку от границы с Канадой. Старшеклассники Нейт и Трэвис запланировали праздничный вояж в Канаду... Их путь пролегал как раз через те же лесные места. Посреди ночи на них напали загадочные жестокие существа, утащив за собой Нейта, а испуганному Трэвису удалось вырваться и драпануть за помощью...



Продолжительность: 01:25:40
Качество видео: BDRemux
Перевод: Отсутствует
Язык озвучки: Английский

Видео: MPEG-2 Video, 1920x1080 (16:9), 17819 kbps, 23,976 fps, 0,358 bpp
Аудио: английский / DTS-HD / 5.1 / 48 kHz / 3340 kbps / 24 bit (Core: 5.1 / 48 kHz / 1509 kbps / 24 bit)
Код:
General
Unique ID                        Travis.aka.The.Sighting.2015.BluRay.1080p.DTS-HD.MA.5.1.MPEG-2.REMUX-FraMeSToR\Travis.aka.The.Sighting.2015.BluRay.1080p.DTS-HD.MA.5.1.MPEG-2.REMUX-FraMeSToR.mkv
Format                                   : Matroska
Format version                           : Version 4 / Version 2
File size                                : 12.7 GiB
Duration                                 : 1 h 25 min
Overall bit rate mode                    : Variable
Overall bit rate                         : 21.2 Mb/s
Movie name                               : Travis aka The Sighting
Encoded date                             : UTC 2016-09-08 02:22:56
Writing application                      : mkvmerge v9.4.0 ('Knurl') 64bit
Writing library                          : libebml v1.3.4 + libmatroska v1.4.5

Video
ID                                       : 1
Format                                   : MPEG Video
Format version                           : Version 2
Format profile                           : Main@High
Format settings, BVOP                    : Yes
Format settings, Matrix                  : Custom
Format settings, GOP                     : M=3, N=15
Codec ID                                 : V_MPEG2
Codec ID/Info                            : MPEG 1 or 2 Video
Duration                                 : 1 h 25 min
Bit rate mode                            : Variable
Bit rate                                 : 17.8 Mb/s
Maximum bit rate                         : 25.0 Mb/s
Width                                    : 1 920 pixels
Height                                   : 1 080 pixels
Display aspect ratio                     : 16:9
Frame rate mode                          : Constant
Frame rate                               : 23.976 (24000/1001) FPS
Color space                              : YUV
Chroma subsampling                       : 4:2:0
Bit depth                                : 8 bits
Scan type                                : Progressive
Compression mode                         : Lossy
Bits/(Pixel*Frame)                       : 0.358
Time code of first frame                 : 00:00:00:00
Time code source                         : Group of pictures header
GOP, Open/Closed                         : Closed
Stream size                              : 10.7 GiB (84%)
Default                                  : Yes
Forced                                   : No

Audio
ID                                       : 2
Format                                   : DTS
Format/Info                              : Digital Theater Systems
Format profile                           : MA / Core
Mode                                     : 16
Format settings, Endianness              : Big
Codec ID                                 : A_DTS
Duration                                 : 1 h 25 min
Bit rate mode                            : Variable / Constant
Bit rate                                 : 3 340 kb/s / 1 509 kb/s
Channel(s)                               : 6 channels
Channel positions                        : Front: L C R, Side: L R, LFE
Sampling rate                            : 48.0 kHz
Frame rate                               : 93.750 FPS (512 spf)
Bit depth                                : 24 bits
Compression mode                         : Lossless / Lossy
Stream size                              : 2.00 GiB (16%)
Title                                    : DTS-HD MA 5.1
Language                                 : English
Default                                  : Yes
Forced                                   : No

Menu
00:00:00.000                             : en:Chapter 1
00:08:59.914                             : en:Chapter 2
00:20:45.035                             : en:Chapter 3
00:31:32.015                             : en:Chapter 4
00:43:13.966                             : en:Chapter 5
00:53:19.946                             : en:Chapter 6
01:04:29.949                             : en:Chapter 7
01:14:18.912                             : en:Chapter 8
01:20:44.965                             : en:Chapter 9

Скриншоты:



Время раздачи: с 13:00 до 23:00
[NNMClub.to]_Travis.aka.The.Sighting.2015.BluRay.1080p.DTS-HD.MA.5.1.MPEG-2.REMUX-FraMeSToR.mkv.torrent
 Торрент: Золотая раздача  Зарегистрирован
 
Примагнититься
Free Leech
Зарегистрируйтесь и скачайте торрент!
63,5 KB
 Зарегистрирован:   08 Сен 2016 22:11:02
 Размер:   12,7 GB  (
 Рейтинг:   4,3 (Голосов: 11)
 Поблагодарили:   49
 Проверка:   Оформление проверено модератором 08 Сен 2016 22:11:50
Как cкачать  ·  Как раздать  ·  Правильно оформить  ·  Поднять ратио!  
Показать сообщения:   
Начать новую тему   Ответить на тему    Торрент-трекер NNM-Club -> Зарубежное кино -> Фильмы в оригинале (HD) Часовой пояс: GMT + 3
Страница 1 из 1