Интеллигентный торрент-трекер
canvas not supported
Нас вместе: 4 187 874

Михаил Задорнов. О еде и новомодных блюдах: харятики, тирамису и террин из хрюши. Лучшее (2016) WEBRip


 
 
RSS
Начать новую тему   Ответить на тему    Торрент-трекер NNM-Club -> Юмор -> Сатирики
Автор Сообщение
svlesin ®
Модератор Документалистики/TV
RG Releasers
Релизер 22222+ Uploader 100+
 
Стаж: 7 лет 1 мес.
Сообщений: 30204
Ratio: 1081,959
Поблагодарили: 2845675
100%
russia.gif
Михаил Задорнов. О еде и новомодных блюдах: харятики, тирамису и террин из хрюши. Лучшее (2016) WEBRip
Телекомпания: РЕН
Жанр: Юмористический концерт, сатира
Режиссер: Михаил Задорнов

Описание:
Михаил Задорнов собрал коллекцию названий блюд из кафе и ресторанов, которые поразят ваше воображение. Вы знаете, где у хрюши террин, вы пробовали вай-фай со взбитыми сливками?

Продолжительность: ~ 0:47:19
Качество видео: WEBRip
Субтитры: Отсутствуют

Видео: MPEG4, XviD, 704x400 (16:9), 25.000 fps, 1 699 Kbps (0.241 bit/pixel)
Аудио: MP3, 44.1 KHz, 2 ch, 128 Kbps, CBR
Код:

Формат                                   : AVI
Формат/Информация                        : Audio Video Interleave
Размер файла                             : 622 Мбайт
Продолжительность                        : 47 м.
Общий поток                              : 1837 Кбит/сек
Программа кодирования                    : VirtualDubMod 1.5.10.3 | www.virtualdub-fr.org || (build 2550/release)
Библиотека кодирования                   : VirtualDubMod build 2550/release

Видео
Идентификатор                            : 0
Формат                                   : MPEG-4 Visual
Профиль формата                          : Advanced Simple@L5
Параметр BVOP формата                    : 1
Параметр QPel формата                    : Нет
Параметр GMC формата                     : Без точки перехода
Параметр матрицы формата                 : Default (H.263)
Идентификатор кодека                     : XVID
Идентификатор кодека/Подсказка           : XviD
Продолжительность                        : 47 м.
Битрейт                                  : 1699 Кбит/сек
Ширина                                   : 704 пикселя
Высота                                   : 400 пикселей
Соотношение сторон                       : 16:9
Частота кадров                           : 25,000 кадров/сек
Цветовое пространство                    : YUV
Субдискретизация насыщенности            : 4:2:0
Битовая глубина                          : 8 бит
Тип развёртки                            : Прогрессивная
Метод сжатия                             : С потерями
Бит/(Пиксели*Кадры)                      : 0.241
Размер потока                            : 575 Мбайт (93%)
Библиотека кодирования                   : XviD 1.2.1 (UTC 2008-12-04)

Аудио
Идентификатор                            : 1
Формат                                   : MPEG Audio
Версия формата                           : Version 1
Профиль формата                          : Layer 3
Идентификатор кодека                     : 55
Идентификатор кодека/Подсказка           : MP3
Продолжительность                        : 47 м.
Вид битрейта                             : Постоянный
Битрейт                                  : 128 Кбит/сек
Каналы                                   : 2 канала
Частота                                  : 44,1 КГц
Метод сжатия                             : С потерями
Размер потока                            : 43,3 Мбайт (7%)
Выравнивание                             : Разделение по промежуткам
Продолжительность промежутка             : 40  мс. (1,00 видеокадр)
Время предзагрузки промежутка            : 500  мс.
Библиотека кодирования                   : LAME3.99r
Настройки программы                      : -m s -V 4 -q 2 -lowpass 17 -b 128
 
Скриншоты:



Все одноименные релизы в Клубе
Время раздачи: 24/7. До первых 5 скачавших.
[NNMClub.to]_Mihail Zadornov. O ede i novomodnyih blyudah... (2016).avi.torrent
 Торрент:   Зарегистрирован
 
Примагнититься
Free Leech
Зарегистрируйтесь и скачайте торрент!
12,5 KB
 Зарегистрирован:   08 Сен 2016 22:21:25
 Размер:   622 MB  (
 Рейтинг:   2,9 (Голосов: 50)
 Поблагодарили:   146
 Проверка:   Оформление проверено модератором 08 Сен 2016 22:21:51
Как cкачать  ·  Как раздать  ·  Правильно оформить  ·  Поднять ратио!  
Показать сообщения:   
Начать новую тему   Ответить на тему    Торрент-трекер NNM-Club -> Юмор -> Сатирики Часовой пояс: GMT + 3
Страница 1 из 1