Интеллигентный торрент-трекер
canvas not supported
Нас вместе: 4 187 607

Люди Икс: Апокалипсис / X-Men: Apocalypse (2016) BDRip [H.264/1080p] [EN / EN Sub]


 
 
RSS
Начать новую тему   Ответить на тему    Торрент-трекер NNM-Club -> Зарубежное кино -> Фильмы в оригинале (HD)
Автор Сообщение
smaster67 ®
Модератор Видео
Покровитель талантов Uploader 300+
Стаж: 7 лет 6 мес.
Сообщений: 6378
Ratio: 186,128
Поблагодарили: 179610
100%
Люди Икс: Апокалипсис / X-Men: Apocalypse (2016) BDRip [H.264/1080p] [EN / EN Sub]

Производство: США
Жанр: фантастика, боевик, приключения

Режиссер: Брайан Сингер
Актеры: Джеймс МакЭвой, Майкл Фассбендер, Дженнифер Лоуренс, Николас Холт, Оскар Айзек, Роуз Бирн, Эван Питерс, Джош Хелман, Софи Тернер, Тай Шеридан, Лукас Тилл, Коди Смит-МакФи

Описание:
События «Дней Минувшего Будущего» оказали колоссальное влияние на мир, где мутанты и люди борются за свое место под Солнцем. В это нелегкое время Людям Икс предстоит столкнуться со своим самым опасным противником - древним мутантом Апокалипсисом, существом, схватка с которым может стать последней не только для мутантов, но и в принципе для всего человечества. В поисках способа победы над неуязвимым и бессмертным монстром Людям Икс предстоит узнать больше о происхождении своего вида. Но Апокалипсис неимоверно силен, и вероятность победы все уменьшается, ведь он твердо убежден, что только сильнейшие имеют право на выживание...



Продолжительность: 02:23:57
Качество видео: BDRip
Перевод: Отсутствует
Язык озвучки: Английский
Язык субтитров: английский
Вид субтитров: Вшитые

Видео: AVC, 1920x800 (2.40:1), 8273 kbps, 23,976 fps, 0,225 bpp
Аудио: английский / DTS / 48 kHz / 1509 kbps / 24 bit
Код:
General
Unique ID                              X-Men Apocalypse.2016.1080p.mkv
Format                                   : Matroska
Format version                           : Version 4 / Version 2
File size                                : 9.84 GiB
Duration                                 : 2 h 23 min
Overall bit rate                         : 9 784 kb/s
Encoded date                             : UTC 2016-09-08 21:26:06
Writing application                      : mkvmerge v8.5.0 ('Vanishing Act') 64bit
Writing library                          : libebml v1.3.1 + libmatroska v1.4.2

Video
ID                                       : 1
Format                                   : AVC
Format/Info                              : Advanced Video Codec
Format profile                           : High@L4.1
Format settings, CABAC                   : Yes
Format settings, ReFrames                : 5 frames
Codec ID                                 : V_MPEG4/ISO/AVC
Duration                                 : 2 h 23 min
Bit rate                                 : 8 273 kb/s
Width                                    : 1 920 pixels
Height                                   : 800 pixels
Display aspect ratio                     : 2.40:1
Frame rate mode                          : Constant
Frame rate                               : 23.976 (24000/1001) FPS
Color space                              : YUV
Chroma subsampling                       : 4:2:0
Bit depth                                : 8 bits
Scan type                                : Progressive
Bits/(Pixel*Frame)                       : 0.225
Stream size                              : 8.32 GiB (85%)
Writing library                          : x264 core 148 r2705 3f5ed56
Encoding settings                        : cabac=1 / ref=5 / deblock=1:-1:-1 / analyse=0x3:0x133 / me=umh / subme=8 / psy=1 / psy_rd=1.00:0.15 / mixed_ref=1 / me_range=16 / chroma_me=1 / trellis=1 / 8x8dct=1 / cqm=0 / deadzone=21,11 / fast_pskip=0 / chroma_qp_offset=-4 / threads=24 / lookahead_threads=4 / sliced_threads=0 / nr=0 / decimate=1 / interlaced=0 / bluray_compat=0 / constrained_intra=0 / bframes=3 / b_pyramid=2 / b_adapt=2 / b_bias=0 / direct=3 / weightb=1 / open_gop=0 / weightp=2 / keyint=240 / keyint_min=23 / scenecut=40 / intra_refresh=0 / rc_lookahead=50 / rc=2pass / mbtree=1 / bitrate=8273 / ratetol=1.0 / qcomp=0.60 / qpmin=10 / qpmax=69 / qpstep=4 / cplxblur=20.0 / qblur=0.5 / ip_ratio=1.40 / aq=1:1.00
Language                                 : English
Default                                  : Yes
Forced                                   : No

Audio
ID                                       : 2
Format                                   : DTS
Format/Info                              : Digital Theater Systems
Format profile                           : ES Matrix / Core
Mode                                     : 16
Format settings, Endianness              : Big
Codec ID                                 : A_DTS
Duration                                 : 2 h 23 min
Bit rate mode                            : Constant
Bit rate                                 : 1 509 kb/s
Channel(s)                               : 7 channels / 6 channels
Channel positions                        : Front: L C R, Side: L R, Back: C, LFE / Front: L C R, Side: L R, LFE
Sampling rate                            : 48.0 kHz
Frame rate                               : 93.750 FPS (512 spf)
Bit depth                                : 24 bits
Compression mode                         : Lossy
Stream size                              : 1.52 GiB (15%)
Language                                 : English
Default                                  : Yes
Forced                                   : No

Text
ID                                       : 3
Format                                   : UTF-8
Codec ID                                 : S_TEXT/UTF8
Codec ID/Info                            : UTF-8 Plain Text
Duration                                 : 1 h 26 min
Bit rate                                 : 3 b/s
Count of elements                        : 97
Stream size                              : 1.96 KiB (0%)
Title                                    : English Forcedyes
Language                                 : English
Default                                  : Yes
Forced                                   : Yes

Menu
00:00:00.000                             : en:00:00:00.000
00:08:18.790                             : en:00:08:18.790
00:14:13.186                             : en:00:14:13.186
00:18:07.086                             : en:00:18:07.086
00:24:55.494                             : en:00:24:55.494
00:30:45.343                             : en:00:30:45.343
00:36:35.235                             : en:00:36:35.235
00:41:00.083                             : en:00:41:00.083
00:45:56.504                             : en:00:45:56.504
00:49:24.295                             : en:00:49:24.295
00:55:22.611                             : en:00:55:22.611
00:59:36.823                             : en:00:59:36.823
01:04:43.671                             : en:01:04:43.671
01:12:35.851                             : en:01:12:35.851
01:17:32.898                             : en:01:17:32.898
01:22:18.517                             : en:01:22:18.517
01:27:45.594                             : en:01:27:45.594
01:34:05.807                             : en:01:34:05.807
01:36:46.634                             : en:01:36:46.634
01:39:50.902                             : en:01:39:50.902
01:43:34.375                             : en:01:43:34.375
01:49:57.382                             : en:01:49:57.382
01:55:08.360                             : en:01:55:08.360
01:57:21.660                             : en:01:57:21.660
02:03:50.548                             : en:02:03:50.548
02:07:56.711                             : en:02:07:56.711
02:10:59.101                             : en:02:10:59.101
02:12:54.091                             : en:02:12:54.091

Скриншоты:



Время раздачи: с 13:00 до 23:00
[NNMClub.to]_X-Men Apocalypse.2016.1080p.mkv.torrent
 Торрент: Золотая раздача  Зарегистрирован
 
Примагнититься
Free Leech
Зарегистрируйтесь и скачайте торрент!
49,4 KB
 Зарегистрирован:   09 Сен 2016 14:26:59
 Размер:   9,84 GB  (
 Рейтинг:   3,8 (Голосов: 21)
 Поблагодарили:   74
 Проверка:   Оформление проверено модератором 09 Сен 2016 14:27:39
Как cкачать  ·  Как раздать  ·  Правильно оформить  ·  Поднять ратио!  
Raptus Corpus
Стаж: 3 года 6 мес.
Сообщений: 108
Ratio: 18,042
79.91%
Откуда: Сибирь
russia.gif
Смотрю такой же с дубляжом :)
Panze​rschr​ek​
Стаж: 9 лет
Сообщений: 92
Ratio: 21,364
Поблагодарили: 59
93.46%
в оригинале гораздо лучше, релизеру большой спасибо.
Показать сообщения:   
Начать новую тему   Ответить на тему    Торрент-трекер NNM-Club -> Зарубежное кино -> Фильмы в оригинале (HD) Часовой пояс: GMT + 3
Страница 1 из 1