Интеллигентный торрент-трекер
canvas not supported
Нас вместе: 4 329 637

Светская жизнь / Cafе Society (2016) BDRip [H.264/720p] [EN]


 
 
RSS
Начать новую тему   Ответить на тему    Торрент-трекер NNM-Club -> Зарубежное кино -> Фильмы в оригинале (HD)
Автор Сообщение
smaster67 ®
Модератор Видео
Покровитель талантов Uploader 300+

Online
Стаж: 8 лет
Сообщений: 6670
Ratio: 202,722
Поблагодарили: 194114
100%
Светская жизнь / Cafе Society (2016) BDRip [H.264/720p] [EN]

Производство: США
Жанр: драма, мелодрама, комедия

Режиссер: Вуди Аллен
Актеры: Дженни Берлин, Стив Карелл, Джесси Айзенберг, Кристен Стюарт, Блейк Лайвли, Паркер Поузи, Кори Столл, Кен Стотт, Анна Кэмп, Пол Шнайдер, Шерил Ли, Тони Сирико

Описание:
1930-е годы. Молодой человек приезжает из Нью-Йорка в Голливуд в надежде найти работу в киноиндустрии. В Лос-Анджелесе он влюбляется и обнаруживает себя в самом центре водоворота бурной светской жизни и событий, определивших дух того времени.



Продолжительность: 01:36:05
Качество видео: BDRip
Перевод: Отсутствует
Язык озвучки: Английский

Видео: AVC, 1280x640 (2.000), 5001 kbps, 23,976 fps, 0,255 bpp
Аудио: английский / DTS / 5.1 / 48 kHz / 1509 kbps / 24 bit
Код: выделить все
General
Unique ID                                : 0 (0x0)
Complete name                           Cafe.Society.2016.720p.mkv
Format                                   : Matroska
Format version                           : Version 4 / Version 2
File size                                : 4.37 GiB
Duration                                 : 1 h 36 min
Overall bit rate                         : 6 514 kb/s
Encoded date                             : UTC 2010-02-22 21:41:29
Writing application                      : no_variable_data
Writing library                          : no_variable_data

Video
ID                                       : 1
Format                                   : AVC
Format/Info                              : Advanced Video Codec
Format profile                           : High@L4.1
Format settings, CABAC                   : Yes
Format settings, ReFrames                : 5 frames
Codec ID                                 : V_MPEG4/ISO/AVC
Duration                                 : 1 h 36 min
Bit rate                                 : 5 001 kb/s
Width                                    : 1 280 pixels
Height                                   : 640 pixels
Display aspect ratio                     : 2.000
Frame rate mode                          : Constant
Frame rate                               : 23.976 (24000/1001) FPS
Color space                              : YUV
Chroma subsampling                       : 4:2:0
Bit depth                                : 8 bits
Scan type                                : Progressive
Bits/(Pixel*Frame)                       : 0.255
Stream size                              : 3.27 GiB (75%)
Writing library                          : x264 core 148 r2705 3f5ed56
Encoding settings                        : cabac=1 / ref=5 / deblock=1:-3:-3 / analyse=0x3:0x113 / me=umh / subme=8 / psy=1 / psy_rd=1.00:0.00 / mixed_ref=1 / me_range=24 / chroma_me=1 / trellis=1 / 8x8dct=1 / cqm=0 / deadzone=21,11 / fast_pskip=1 / chroma_qp_offset=-2 / threads=20 / lookahead_threads=3 / sliced_threads=0 / nr=0 / decimate=1 / interlaced=0 / bluray_compat=0 / constrained_intra=0 / bframes=3 / b_pyramid=2 / b_adapt=2 / b_bias=0 / direct=3 / weightb=1 / open_gop=0 / weightp=2 / keyint=240 / keyint_min=24 / scenecut=40 / intra_refresh=0 / rc_lookahead=50 / rc=2pass / mbtree=1 / bitrate=5001 / ratetol=1.0 / qcomp=0.60 / qpmin=0 / qpmax=69 / qpstep=4 / cplxblur=20.0 / qblur=0.5 / ip_ratio=1.40 / aq=3:0.80
Default                                  : Yes
Forced                                   : No
Statistics Tags Issue                    : no_variable_data 1970-01-01 00:00:00 / no_variable_data 2010-02-22 21:41:29
FromStats_BitRate                        : 5002379
FromStats_Duration                       : 01:36:05.552000000
FromStats_FrameCount                     : 138235
FromStats_StreamSize                     : 3605184532

Audio
ID                                       : 2
Format                                   : DTS
Format/Info                              : Digital Theater Systems
Mode                                     : 16
Format settings, Endianness              : Big
Codec ID                                 : A_DTS
Duration                                 : 1 h 36 min
Bit rate mode                            : Constant
Bit rate                                 : 1 509 kb/s
Channel(s)                               : 6 channels
Channel positions                        : Front: L C R, Side: L R, LFE
Sampling rate                            : 48.0 kHz
Frame rate                               : 93.750 FPS (512 spf)
Bit depth                                : 24 bits
Compression mode                         : Lossy
Stream size                              : 1.01 GiB (23%)
Language                                 : English
Default                                  : Yes
Forced                                   : No
Statistics Tags Issue                    : no_variable_data 1970-01-01 00:00:00 / no_variable_data 2010-02-22 21:41:29
FromStats_BitRate                        : 1508999
FromStats_Duration                       : 01:36:05.558000000
FromStats_FrameCount                     : 540521
FromStats_StreamSize                     : 1087528252

Menu
00:00:00.000                             : en:00:00:00.000
00:08:35.849                             : en:00:08:35.849
00:16:40.166                             : en:00:16:40.166
00:26:28.629                             : en:00:26:28.629
00:32:30.991                             : en:00:32:30.991
00:43:12.507                             : en:00:43:12.507
00:54:03.866                             : en:00:54:03.866
01:02:38.755                             : en:01:02:38.755
01:10:05.660                             : en:01:10:05.660
01:14:41.102                             : en:01:14:41.102
01:20:46.175                             : en:01:20:46.175
01:31:57.095                             : en:01:31:57.095

Скриншоты:



Время раздачи: с 13:00 до 23:00
[NNMClub.to]_Cafe.Society.2016.720p.mkv.torrent
 Торрент: Платиновая раздача  Зарегистрирован
 
Примагнититься

Скачать
 Зарегистрирован:   09 Сен 2016 21:51:30
 Размер:   4,37 GB  (
 Рейтинг:   4,7 (Голосов: 10)
 Поблагодарили:   75
 Проверка:   Оформление проверено модератором 09 Сен 2016 21:51:56
Как cкачать  ·  Как раздать  ·  Правильно оформить  ·  Поднять ратио!  
mcczoom
Стаж: 5 лет 9 мес.
Сообщений: 30
Ratio: 14,711
0.56%
canada.gif
Увидел на скринах Кристинку Стюарт - чуть не подавился )) Никак не ожидал у Вуди ее увидеть.
Показать сообщения:   
Начать новую тему   Ответить на тему    Торрент-трекер NNM-Club -> Зарубежное кино -> Фильмы в оригинале (HD) Часовой пояс: GMT + 3
Страница 1 из 1