Интеллигентный торрент-трекер
canvas not supported
Нас вместе: 4 306 725

Porn Sword Tobacco - Discography 10 Releases (2004-2016) [FLAC|Lossless|tracks+.cue, tracks] <IDM, Experimental, Ambient, Dub Techno>


 
 
RSS
Начать новую тему   Ответить на тему    Торрент-трекер NNM-Club -> Electronic -> IDM (Lossless)
Автор Сообщение
vilator ®
Модератор Музыки
RG Music
 
Стаж: 7 лет 11 мес.
Сообщений: 5696
Ratio: 125,941
Поблагодарили: 111896
100%
Откуда: Minsk
pirates.png
Porn Sword Tobacco Discography

Henrik Jonsson aka Porn Sword Tobacco родом из города Göteborg (Швеция). Проект получил свое название в честь маленького магазина где-то в родной Швеции, расположенного недалеко от студии, в которой работал Джонсон. Дебютный альбом вышел в 2004 году в Германии на лейбле City Centre Offices. Музыка Porn Sword Tobacco по своему стилю восходит корнями к эмбиенту Брайана Ино, космическим путешествиям Tangerine Dream и авангардному минимализму Эрика Сати. Некоторые сравнивают его с такими исполнителями как Marsen Jules и The Boats, но у Джонсона свой стиль, непохожий ни на кого. Его музыка уникальна: взрыв шума, треска и статики. Там, где другие музыканты используют эти звуковые эффекты в малых количествах, Porn Sword Tobacco больше похож на сломанное радио, настроенное на волну, где играют самую красивую мелодию, которую вы когда-либо слышали. Сейчас Porn Sword Tobacco задает темп будущему эмбиент-музыки. Джонсону удается в своих композициях адаптировать бесконечное разнообразие фортепианных звуков для поколения, воспитанного на электронной музыке.
Жанр: IDM, Experimental, Minimal, Ambient, Deep House, Dub Techno • Страна: Sweden • Год издания: 2004-2016 • Тип издания: CD, Web, Vinyl
Аудиокодек: FLAC (*.flac) • Тип рипа: tracks+.cue, tracks • Продолжительность: 05:20:06 • Источник: What | Наличие сканов: нет
Треклист:
Год выпуска: 2004
Продолжительность: 00:29:28
Треклист:

01. Wife Beater (03:23)
02. Sad Blocks, Happy Pussys (02:31)
03. Evans Sundown Corp. (04:01)
04. Riot Control (02:54)
05. Jeff Bronx The Heavy Hitter (01:39)
06. Nah, He Vapourised! (02:22)
07. Charlie Chaplin? (02:50)
08. Dont Quit Your Dayjob (02:43)
09. Pinkys (03:44)
10. Snake Cake Station (03:21)

Exact Audio Copy V0.99 prebeta 5 from 4. May 2009

EAC extraction logfile from 30. July 2010, 20:37

Porn Sword Tobacco / Porn Sword Tobacco

Used drive : PLEXTOR CD-R PREMIUM Adapter: 2 ID: 0

Read mode : Secure
Utilize accurate stream : Yes
Defeat audio cache : Yes
Make use of C2 pointers : No

Read offset correction : 30
Overread into Lead-In and Lead-Out : Yes
Fill up missing offset samples with silence : Yes
Delete leading and trailing silent blocks : No
Null samples used in CRC calculations : Yes
Used interface : Installed external ASPI interface
Gap handling : Appended to previous track

Used output format : Internal WAV Routines
Sample format : 44.100 Hz; 16 Bit; Stereo

TOC of the extracted CD

Track | Start | Length | Start sector | End sector
---------------------------------------------------------
1 | 0:00.00 | 3:23.08 | 0 | 15232
2 | 3:23.08 | 2:31.22 | 15233 | 26579
3 | 5:54.30 | 4:00.65 | 26580 | 44644
4 | 9:55.20 | 2:54.17 | 44645 | 57711
5 | 12:49.37 | 1:39.10 | 57712 | 65146
6 | 14:28.47 | 2:22.18 | 65147 | 75814
7 | 16:50.65 | 2:49.46 | 75815 | 88535
8 | 19:40.36 | 2:43.14 | 88536 | 100774
9 | 22:23.50 | 3:44.23 | 100775 | 117597
10 | 26:07.73 | 3:21.02 | 117598 | 132674

Track 1

Filename C:\rip\01-Wife_Beater.wav

Pre-gap length 0:00:02.00

Peak level 98.5 %
Track quality 100.0 %
Test CRC 01F468F0
Copy CRC 01F468F0
Accurately ripped (confidence 1) [1DB70D70]
Copy OK

Track 2

Filename C:\rip\02-Sad_Blocks,_Happy_Pussys.wav

Peak level 98.4 %
Track quality 100.0 %
Test CRC DA32B744
Copy CRC DA32B744
Accurately ripped (confidence 1) [ED3C3CCD]
Copy OK

Track 3

Filename C:\rip\03-Evans_Sundown_Corp..wav

Peak level 98.4 %
Track quality 100.0 %
Test CRC AE6E221E
Copy CRC AE6E221E
Accurately ripped (confidence 1) [2F0B7B21]
Copy OK

Track 4

Filename C:\rip\04-Riot_Control.wav

Peak level 98.4 %
Track quality 100.0 %
Test CRC 6F20FC55
Copy CRC 6F20FC55
Accurately ripped (confidence 1) [5B4EE6B5]
Copy OK

Track 5

Filename C:\rip\05-Jeff_Bronx_the_Heavy_Hitter.wav

Peak level 98.5 %
Track quality 100.0 %
Test CRC 458B56B3
Copy CRC 458B56B3
Accurately ripped (confidence 1) [86813598]
Copy OK

Track 6

Filename C:\rip\06-Nah,_He_Vapourised!.wav

Peak level 98.4 %
Track quality 100.0 %
Test CRC 21CDB05D
Copy CRC 21CDB05D
Accurately ripped (confidence 1) [B8E39D82]
Copy OK

Track 7

Filename C:\rip\07-Charlie_Chaplin².wav

Peak level 98.5 %
Track quality 100.0 %
Test CRC 6CA55F4A
Copy CRC 6CA55F4A
Accurately ripped (confidence 1) [7C33A9B5]
Copy OK

Track 8

Filename C:\rip\08-Don't_Quit_Your_Dayjob.wav

Peak level 98.5 %
Track quality 100.0 %
Test CRC 4CF021DB
Copy CRC 4CF021DB
Accurately ripped (confidence 1) [B071BBDA]
Copy OK

Track 9

Filename C:\rip\09-Pinkys.wav

Peak level 98.5 %
Track quality 100.0 %
Test CRC F8456443
Copy CRC F8456443
Accurately ripped (confidence 1) [EE355FB8]
Copy OK

Track 10

Filename C:\rip\10-Snake_Cake_Station.wav

Peak level 99.5 %
Track quality 100.0 %
Test CRC B989BD91
Copy CRC B989BD91
Accurately ripped (confidence 1) [0260E880]
Copy OK

All tracks accurately ripped

No errors occurred

End of status report


REM GENRE Unknown
REM DATE 2004
REM DISCID 7C06E90A
REM COMMENT "ExactAudioCopy v0.99pb5"
PERFORMER "Porn Sword Tobacco"
TITLE "Porn Sword Tobacco"
FILE "01. Wife Beater.wav" WAVE
TRACK 01 AUDIO
TITLE "Wife Beater"
PERFORMER "Porn Sword Tobacco"
INDEX 01 00:00:00
FILE "02. Sad Blocks, Happy Pussys.wav" WAVE
TRACK 02 AUDIO
TITLE "Sad Blocks, Happy Pussys"
PERFORMER "Porn Sword Tobacco"
INDEX 01 00:00:00
FILE "03. Evans Sundown Corp..wav" WAVE
TRACK 03 AUDIO
TITLE "Evans Sundown Corp."
PERFORMER "Porn Sword Tobacco"
INDEX 01 00:00:00
FILE "04. Riot Control.wav" WAVE
TRACK 04 AUDIO
TITLE "Riot Control"
PERFORMER "Porn Sword Tobacco"
INDEX 01 00:00:00
FILE "05. Jeff Bronx The Heavy Hitter.wav" WAVE
TRACK 05 AUDIO
TITLE "Jeff Bronx the Heavy Hitter"
PERFORMER "Porn Sword Tobacco"
INDEX 01 00:00:00
FILE "06. Nah, He Vapourised!.wav" WAVE
TRACK 06 AUDIO
TITLE "Nah, He Vapourised!"
PERFORMER "Porn Sword Tobacco"
INDEX 01 00:00:00
FILE "07. Charlie Chaplin².wav" WAVE
TRACK 07 AUDIO
TITLE "Charlie Chaplin²"
PERFORMER "Porn Sword Tobacco"
INDEX 01 00:00:00
FILE "08. Dont Quit Your Dayjob.wav" WAVE
TRACK 08 AUDIO
TITLE "Don't Quit Your Dayjob"
PERFORMER "Porn Sword Tobacco"
INDEX 01 00:00:00
FILE "09. Pinkys.wav" WAVE
TRACK 09 AUDIO
TITLE "Pinkys"
PERFORMER "Porn Sword Tobacco"
INDEX 01 00:00:00
FILE "10. Snake Cake Station.wav" WAVE
TRACK 10 AUDIO
TITLE "Snake Cake Station"
PERFORMER "Porn Sword Tobacco"
INDEX 01 00:00:00

Год выпуска: 2005
Продолжительность: 00:51:15
Треклист:

01. Eudaimonia (02:03)
02. Soft Airgun&Electric (02:00)
03. Watts Towers (03:15)
04. Talk Is Cheap, Swords Are Sharp (01:09)
05. Praying With Benny (01:36)
06. Dina Upptackter Ritar Kartan (03:52)
07. Carl Zeiss Driving To Work (02:52)
08. Thank You! (01:41)
09. Old Booze, New Friends (02:44)
10. Naturens Kraft Och Klang (02:00)
11. Ta Med Skogen Hem (03:33)
12. White Sneakers (02:14)
13. Detta Ar Karleken Som Dansar (04:18)
14. Folkhemmet (01:54)
15. Najat Library Card (Dub Mix) (02:23)
16. Futuristic Rasta Money (04:03)
17. If Your Bed Could Cry (03:23)
18. Saddle Commercial (01:42)
19. Freedom Commercial (04:33)

Exact Audio Copy V0.99 prebeta 5 from 4. May 2009

EAC extraction logfile from 30. July 2010, 18:59

Porn Sword Tobacco / Explains Freedom

Used drive : PLEXTOR CD-R PREMIUM Adapter: 2 ID: 0

Read mode : Secure
Utilize accurate stream : Yes
Defeat audio cache : Yes
Make use of C2 pointers : No

Read offset correction : 30
Overread into Lead-In and Lead-Out : Yes
Fill up missing offset samples with silence : Yes
Delete leading and trailing silent blocks : No
Null samples used in CRC calculations : Yes
Used interface : Installed external ASPI interface
Gap handling : Appended to previous track

Used output format : Internal WAV Routines
Sample format : 44.100 Hz; 16 Bit; Stereo

TOC of the extracted CD

Track | Start | Length | Start sector | End sector
---------------------------------------------------------
1 | 0:00.00 | 2:02.64 | 0 | 9213
2 | 2:02.64 | 1:59.63 | 9214 | 18201
3 | 4:02.52 | 3:15.11 | 18202 | 32837
4 | 7:17.63 | 1:09.22 | 32838 | 38034
5 | 8:27.10 | 1:36.28 | 38035 | 45262
6 | 10:03.38 | 3:52.27 | 45263 | 62689
7 | 13:55.65 | 2:52.22 | 62690 | 75611
8 | 16:48.12 | 1:40.61 | 75612 | 83172
9 | 18:28.73 | 2:43.52 | 83173 | 95449
10 | 21:12.50 | 1:59.51 | 95450 | 104425
11 | 23:12.26 | 3:33.29 | 104426 | 120429
12 | 26:45.55 | 2:13.64 | 120430 | 130468
13 | 28:59.44 | 4:18.04 | 130469 | 149822
14 | 33:17.48 | 1:54.16 | 149823 | 158388
15 | 35:11.64 | 2:23.00 | 158389 | 169113
16 | 37:34.64 | 4:02.55 | 169114 | 187318
17 | 41:37.44 | 3:23.21 | 187319 | 202564
18 | 45:00.65 | 1:42.24 | 202565 | 210238
19 | 46:43.14 | 4:32.50 | 210239 | 230688
20 | 53:47.64 | 22:44.10 | 242089 | 344398

Track 1

Filename C:\rip\01-Eudaimonia.wav

Pre-gap length 0:00:02.00

Peak level 98.4 %
Track quality 99.9 %
Test CRC 86E988B5
Copy CRC 86E988B5
Accurately ripped (confidence 3) [A8853F7B]
Copy OK

Track 2

Filename C:\rip\02-Soft_Airgun_&_Electric.wav

Peak level 98.7 %
Track quality 99.9 %
Test CRC DC5AC30D
Copy CRC DC5AC30D
Accurately ripped (confidence 3) [5DAD2786]
Copy OK

Track 3

Filename C:\rip\03-Watts_Towers.wav

Peak level 98.5 %
Track quality 100.0 %
Test CRC 62E2A88D
Copy CRC 62E2A88D
Accurately ripped (confidence 3) [62CF41BD]
Copy OK

Track 4

Filename C:\rip\04-Talk_is_Cheap,_Swords_are_Sharp.wav

Peak level 98.4 %
Track quality 100.0 %
Test CRC 456FC9FE
Copy CRC 456FC9FE
Accurately ripped (confidence 3) [D785F86E]
Copy OK

Track 5

Filename C:\rip\05-Praying_with_Benny.wav

Peak level 99.9 %
Track quality 100.0 %
Test CRC 0532CC6A
Copy CRC 0532CC6A
Accurately ripped (confidence 3) [1E595B29]
Copy OK

Track 6

Filename C:\rip\06-Dina_upptäckter_ritar_kartan.wav

Peak level 98.4 %
Track quality 100.0 %
Test CRC 747ACE27
Copy CRC 747ACE27
Accurately ripped (confidence 3) [DBA1BE9A]
Copy OK

Track 7

Filename C:\rip\07-Carl_Zeiss_Driving_to_Work.wav

Peak level 98.4 %
Track quality 100.0 %
Test CRC ED2B9B52
Copy CRC ED2B9B52
Accurately ripped (confidence 3) [F5D46BD9]
Copy OK

Track 8

Filename C:\rip\08-Thank_You!.wav

Peak level 98.4 %
Track quality 100.0 %
Test CRC 37AABBAE
Copy CRC 37AABBAE
Accurately ripped (confidence 3) [3EC92E00]
Copy OK

Track 9

Filename C:\rip\09-Old_Booze,_New_Friends.wav

Peak level 98.4 %
Track quality 99.9 %
Test CRC DF9DC771
Copy CRC DF9DC771
Accurately ripped (confidence 3) [E922AD0D]
Copy OK

Track 10

Filename C:\rip\10-Naturens_kraft_och_klang.wav

Peak level 98.4 %
Track quality 100.0 %
Test CRC DCFEF70E
Copy CRC DCFEF70E
Accurately ripped (confidence 3) [A0DD63D1]
Copy OK

Track 11

Filename C:\rip\11-Ta_med_skogen_hem.wav

Peak level 98.5 %
Track quality 100.0 %
Test CRC 0164D10D
Copy CRC 0164D10D
Accurately ripped (confidence 3) [3267F2A4]
Copy OK

Track 12

Filename C:\rip\12-White_Sneakers.wav

Peak level 98.4 %
Track quality 100.0 %
Test CRC 688EAA17
Copy CRC 688EAA17
Accurately ripped (confidence 3) [16886FF6]
Copy OK

Track 13

Filename C:\rip\13-Detta_är_kärleken_som_dansar.wav

Peak level 98.5 %
Track quality 100.0 %
Test CRC 15B9D269
Copy CRC 15B9D269
Accurately ripped (confidence 3) [1E35F5F4]
Copy OK

Track 14

Filename C:\rip\14-Folkhemmet.wav

Peak level 98.4 %
Track quality 99.9 %
Test CRC A3489E52
Copy CRC A3489E52
Accurately ripped (confidence 3) [DFFA1078]
Copy OK

Track 15

Filename C:\rip\15-Najat_Library_Card_(dub_mix).wav

Peak level 78.4 %
Track quality 100.0 %
Test CRC 3E722F4E
Copy CRC 3E722F4E
Accurately ripped (confidence 3) [7831E99A]
Copy OK

Track 16

Filename C:\rip\16-Futuristic_Rasta_Money.wav

Peak level 98.5 %
Track quality 99.9 %
Test CRC 863F7ED4
Copy CRC 863F7ED4
Accurately ripped (confidence 3) [6707647B]
Copy OK

Track 17

Filename C:\rip\17-If_Your_Bed_Could_Cry.wav

Peak level 98.6 %
Track quality 100.0 %
Test CRC 7A2B1022
Copy CRC 7A2B1022
Accurately ripped (confidence 3) [5C5BC473]
Copy OK

Track 18

Filename C:\rip\18-Saddle_Commercial.wav

Peak level 98.6 %
Track quality 100.0 %
Test CRC 8B5F2543
Copy CRC 8B5F2543
Accurately ripped (confidence 3) [CB36BDF5]
Copy OK

Track 19

Filename C:\rip\19-Freedom_Commercial.wav

Peak level 98.5 %
Track quality 100.0 %
Test CRC AB0FB86E
Copy CRC AB0FB86E
Accurately ripped (confidence 3) [EE779BFD]
Copy OK

All tracks accurately ripped

No errors occurred

End of status report


REM GENRE Unknown
REM DATE 2005
REM DISCID 0211EF14
REM COMMENT "ExactAudioCopy v0.99pb5"
PERFORMER "Porn Sword Tobacco"
TITLE "Explains Freedom"
FILE "01. Eudaimonia.wav" WAVE
TRACK 01 AUDIO
TITLE "Eudaimonia"
PERFORMER "Porn Sword Tobacco"
INDEX 01 00:00:00
FILE "02. Soft Airgun&Electric.wav" WAVE
TRACK 02 AUDIO
TITLE "Soft Airgun & Electric"
PERFORMER "Porn Sword Tobacco"
INDEX 01 00:00:00
FILE "03. Watts Towers.wav" WAVE
TRACK 03 AUDIO
TITLE "Watts Towers"
PERFORMER "Porn Sword Tobacco"
INDEX 01 00:00:00
FILE "04. Talk Is Cheap, Swords Are Sharp.wav" WAVE
TRACK 04 AUDIO
TITLE "Talk is Cheap, Swords are Sharp"
PERFORMER "Porn Sword Tobacco"
INDEX 01 00:00:00
FILE "05. Praying With Benny.wav" WAVE
TRACK 05 AUDIO
TITLE "Praying with Benny"
PERFORMER "Porn Sword Tobacco"
INDEX 01 00:00:00
FILE "06. Dina Upptäckter Ritar Kartan.wav" WAVE
TRACK 06 AUDIO
TITLE "Dina upptäckter ritar kartan"
PERFORMER "Porn Sword Tobacco"
INDEX 01 00:00:00
FILE "07. Carl Zeiss Driving To Work.wav" WAVE
TRACK 07 AUDIO
TITLE "Carl Zeiss Driving to Work"
PERFORMER "Porn Sword Tobacco"
INDEX 01 00:00:00
FILE "08. Thank You!.wav" WAVE
TRACK 08 AUDIO
TITLE "Thank You!"
PERFORMER "Porn Sword Tobacco"
INDEX 01 00:00:00
FILE "09. Old Booze, New Friends.wav" WAVE
TRACK 09 AUDIO
TITLE "Old Booze, New Friends"
PERFORMER "Porn Sword Tobacco"
INDEX 01 00:00:00
FILE "10. Naturens Kraft Och Klang.wav" WAVE
TRACK 10 AUDIO
TITLE "Naturens kraft och klang"
PERFORMER "Porn Sword Tobacco"
INDEX 01 00:00:00
FILE "11. Ta Med Skogen Hem.wav" WAVE
TRACK 11 AUDIO
TITLE "Ta med skogen hem"
PERFORMER "Porn Sword Tobacco"
INDEX 01 00:00:00
FILE "12. White Sneakers.wav" WAVE
TRACK 12 AUDIO
TITLE "White Sneakers"
PERFORMER "Porn Sword Tobacco"
INDEX 01 00:00:00
FILE "13. Detta Är Kärleken Som Dansar.wav" WAVE
TRACK 13 AUDIO
TITLE "Detta är kärleken som dansar"
PERFORMER "Porn Sword Tobacco"
INDEX 01 00:00:00
FILE "14. Folkhemmet.wav" WAVE
TRACK 14 AUDIO
TITLE "Folkhemmet"
PERFORMER "Porn Sword Tobacco"
INDEX 01 00:00:00
FILE "15. Najat Library Card (Dub Mix).wav" WAVE
TRACK 15 AUDIO
TITLE "Najat Library Card (dub mix)"
PERFORMER "Porn Sword Tobacco"
INDEX 01 00:00:00
FILE "16. Futuristic Rasta Money.wav" WAVE
TRACK 16 AUDIO
TITLE "Futuristic Rasta Money"
PERFORMER "Porn Sword Tobacco"
INDEX 01 00:00:00
FILE "17. If Your Bed Could Cry.wav" WAVE
TRACK 17 AUDIO
TITLE "If Your Bed Could Cry"
PERFORMER "Porn Sword Tobacco"
INDEX 01 00:00:00
FILE "18. Saddle Commercial.wav" WAVE
TRACK 18 AUDIO
TITLE "Saddle Commercial"
PERFORMER "Porn Sword Tobacco"
INDEX 01 00:00:00
FILE "19. Freedom Commercial.wav" WAVE
TRACK 19 AUDIO
TITLE "Freedom Commercial"
PERFORMER "Porn Sword Tobacco"
INDEX 01 00:00:00
TRACK 20 MODEx/2xxx
TITLE "[data track]"
PERFORMER "Porn Sword Tobacco"
INDEX 00 04:32:50

Год выпуска: 2007
Продолжительность: 00:35:33
Треклист:

01. Tools For Trains (01:58)
02. Den Rosa Sporten (01:23)
03. Giftwrap Yourself, Slowly (05:29)
04. Copyright The Universe (05:37)
05. Ljus, Den Yttersta Gavan (00:49)
06. Cubical Fever (03:38)
07. Comme-Il-Faut (6 AR) (01:12)
08. En Hyllning Till Cyckeln (01:57)
09. My Lovely Wife Becky (00:59)
10. Do The Astrowaltz (02:17)
11. Hierarkisk Symmetri Och Romantik (00:53)
12. Pappa! Min Karlek Ar Gravid (04:52)
13. U.S Saloon Props 41/59 (02:22)
14. Vingar Av Svard (02:07)

Exact Audio Copy V1.0 beta 1 from 15. November 2010

EAC extraction logfile from 13. June 2012, 17:08

Porn Sword Tobacco / New Exclusive Olympic Heights

Used drive : HL-DT-STDVDRAM GH60N Adapter: 0 ID: 0

Read mode : Secure
Utilize accurate stream : Yes
Defeat audio cache : Yes
Make use of C2 pointers : No

Read offset correction : 667
Overread into Lead-In and Lead-Out : No
Fill up missing offset samples with silence : Yes
Delete leading and trailing silent blocks : No
Null samples used in CRC calculations : Yes
Used interface : Native Win32 interface for Win NT & 2000
Gap handling : Appended to previous track

Used output format : User Defined Encoder
Selected bitrate : 1024 kBit/s
Quality : High
Add ID3 tag : No
Command line compressor : C:\Program Files (x86)\Exact Audio Copy\FLAC\FLAC.EXE
Additional command line options : -6 -V -T "ARTIST=%a" -T "TITLE=%t" -T "ALBUM=%g" -T "DATE=%y" -T "TRACKNUMBER=%n" -T "GENRE=%m" -T "COMMENT=%e" %j--picture="%i"%j %s -o %d

TOC of the extracted CD

Track | Start | Length | Start sector | End sector
---------------------------------------------------------
1 | 0:00.00 | 1:58.01 | 0 | 8850
2 | 1:58.01 | 1:23.29 | 8851 | 15104
3 | 3:21.30 | 5:29.25 | 15105 | 39804
4 | 8:50.55 | 5:37.23 | 39805 | 65102
5 | 14:28.03 | 0:49.18 | 65103 | 68795
6 | 15:17.21 | 3:38.01 | 68796 | 85146
7 | 18:55.22 | 1:11.64 | 85147 | 90535
8 | 20:07.11 | 1:56.51 | 90536 | 99286
9 | 22:03.62 | 0:59.26 | 99287 | 103737
10 | 23:03.13 | 2:17.11 | 103738 | 114023
11 | 25:20.24 | 0:53.32 | 114024 | 118030
12 | 26:13.56 | 4:51.42 | 118031 | 139897
13 | 31:05.23 | 2:21.45 | 139898 | 150517
14 | 33:26.68 | 2:07.35 | 150518 | 160077

Track 1

Filename D:\EAC\Porn Sword Tobacco - New Exclusive Olympic Heights\01 - Tools for Trains.wav

Pre-gap length 0:00:02.00

Peak level 98.4 %
Extraction speed 0.9 X
Track quality 100.0 %
Test CRC 3A1E12B7
Copy CRC 3A1E12B7
Accurately ripped (confidence 5) [0FD7CAAA]
Copy OK

Track 2

Filename D:\EAC\Porn Sword Tobacco - New Exclusive Olympic Heights\02 - Den Rosa Sporten.wav

Peak level 98.4 %
Extraction speed 0.8 X
Track quality 100.0 %
Test CRC 6A2BA1B5
Copy CRC 6A2BA1B5
Accurately ripped (confidence 5) [9AE32B4C]
Copy OK

Track 3

Filename D:\EAC\Porn Sword Tobacco - New Exclusive Olympic Heights\03 - Giftwrap Yourself, Slowly.wav

Peak level 99.7 %
Extraction speed 1.2 X
Track quality 100.0 %
Test CRC E1B0998D
Copy CRC E1B0998D
Accurately ripped (confidence 5) [FE336F8E]
Copy OK

Track 4

Filename D:\EAC\Porn Sword Tobacco - New Exclusive Olympic Heights\04 - Copyright the Universe.wav

Peak level 99.2 %
Extraction speed 1.4 X
Track quality 100.0 %
Test CRC E4FCB819
Copy CRC E4FCB819
Accurately ripped (confidence 5) [1754F4E6]
Copy OK

Track 5

Filename D:\EAC\Porn Sword Tobacco - New Exclusive Olympic Heights\05 - Ljus, den Yttersa Gåvan.wav

Peak level 98.4 %
Extraction speed 0.9 X
Track quality 100.0 %
Test CRC 23FD351B
Copy CRC 23FD351B
Accurately ripped (confidence 5) [EEFDB100]
Copy OK

Track 6

Filename D:\EAC\Porn Sword Tobacco - New Exclusive Olympic Heights\06 - Cubical Fever.wav

Peak level 100.0 %
Extraction speed 1.4 X
Track quality 100.0 %
Test CRC 6691D2EF
Copy CRC 6691D2EF
Accurately ripped (confidence 5) [19AEEC96]
Copy OK

Track 7

Filename D:\EAC\Porn Sword Tobacco - New Exclusive Olympic Heights\07 - Comme-il-faut (6 ÅR).wav

Peak level 98.4 %
Extraction speed 1.1 X
Track quality 100.0 %
Test CRC 008D1BCC
Copy CRC 008D1BCC
Accurately ripped (confidence 5) [6D4A9D7F]
Copy OK

Track 8

Filename D:\EAC\Porn Sword Tobacco - New Exclusive Olympic Heights\08 - En Hyllning Till Cyckeln.wav

Peak level 98.4 %
Extraction speed 1.3 X
Track quality 100.0 %
Test CRC 3512E422
Copy CRC 3512E422
Accurately ripped (confidence 5) [F612408D]
Copy OK

Track 9

Filename D:\EAC\Porn Sword Tobacco - New Exclusive Olympic Heights\09 - My Lovely Wife Becky.wav

Peak level 56.7 %
Extraction speed 1.0 X
Track quality 100.0 %
Test CRC E896779B
Copy CRC E896779B
Accurately ripped (confidence 5) [BAC9D4E1]
Copy OK

Track 10

Filename D:\EAC\Porn Sword Tobacco - New Exclusive Olympic Heights\10 - Do the Astrowaltz.wav

Peak level 98.4 %
Extraction speed 1.2 X
Track quality 99.9 %
Test CRC 13D1309D
Copy CRC 13D1309D
Accurately ripped (confidence 5) [7F55DE66]
Copy OK

Track 11

Filename D:\EAC\Porn Sword Tobacco - New Exclusive Olympic Heights\11 - Hierarkisk Symmetri och Romantik.wav

Peak level 99.9 %
Extraction speed 0.5 X
Track quality 99.6 %
Test CRC 14AB5342
Copy CRC 14AB5342
Accurately ripped (confidence 5) [D496865D]
Copy OK

Track 12

Filename D:\EAC\Porn Sword Tobacco - New Exclusive Olympic Heights\12 - Pappa! Min Kärlek är Gravid.wav

Peak level 98.5 %
Extraction speed 1.6 X
Track quality 99.9 %
Test CRC 57831333
Copy CRC 57831333
Accurately ripped (confidence 5) [B8655541]
Copy OK

Track 13

Filename D:\EAC\Porn Sword Tobacco - New Exclusive Olympic Heights\13 - U.S Saloon Props 41,59.wav

Peak level 78.2 %
Extraction speed 1.6 X
Track quality 100.0 %
Test CRC 5199036D
Copy CRC 5199036D
Accurately ripped (confidence 5) [A90C7D05]
Copy OK

Track 14

Filename D:\EAC\Porn Sword Tobacco - New Exclusive Olympic Heights\14 - Vingar av Svärd.wav

Peak level 98.5 %
Extraction speed 1.6 X
Track quality 100.0 %
Test CRC C2B3C53D
Copy CRC C2B3C53D
Accurately ripped (confidence 5) [14E3BBE3]
Copy OK

All tracks accurately ripped

No errors occurred

End of status report

==== Log checksum 8A8C06303A8A71A8FFF735D72EA15DFCB2DC8F88F7B08133846561DC5F57EEC8 ====


REM GENRE "Ambient / Electronic"
REM DATE 2007
REM DISCID A608560E
REM COMMENT "ExactAudioCopy v1.0b1"
PERFORMER "Porn Sword Tobacco"
TITLE "New Exclusive Olympic Heights"
FILE "01 - Tools for Trains.wav" WAVE
TRACK 01 AUDIO
TITLE "Tools for Trains"
PERFORMER "Porn Sword Tobacco"
ISRC DEX700703901
INDEX 01 00:00:00
FILE "02 - Den Rosa Sporten.wav" WAVE
TRACK 02 AUDIO
TITLE "Den Rosa Sporten"
PERFORMER "Porn Sword Tobacco"
ISRC DEX700703902
INDEX 01 00:00:00
FILE "03 - Giftwrap Yourself, Slowly.wav" WAVE
TRACK 03 AUDIO
TITLE "Giftwrap Yourself, Slowly"
PERFORMER "Porn Sword Tobacco"
ISRC DEX700703903
INDEX 01 00:00:00
FILE "04 - Copyright the Universe.wav" WAVE
TRACK 04 AUDIO
TITLE "Copyright the Universe"
PERFORMER "Porn Sword Tobacco"
ISRC DEX700703904
INDEX 01 00:00:00
FILE "05 - Ljus, den Yttersa Gеvan.wav" WAVE
TRACK 05 AUDIO
TITLE "Ljus, den Yttersa Gеvan"
PERFORMER "Porn Sword Tobacco"
ISRC DEX700703905
INDEX 01 00:00:00
FILE "06 - Cubical Fever.wav" WAVE
TRACK 06 AUDIO
TITLE "Cubical Fever"
PERFORMER "Porn Sword Tobacco"
ISRC DEX700703906
INDEX 01 00:00:00
FILE "07 - Comme-il-faut (6 ЕR).wav" WAVE
TRACK 07 AUDIO
TITLE "Comme-il-faut (6 ЕR)"
PERFORMER "Porn Sword Tobacco"
ISRC DEX700703907
INDEX 01 00:00:00
FILE "08 - En Hyllning Till Cyckeln.wav" WAVE
TRACK 08 AUDIO
TITLE "En Hyllning Till Cyckeln"
PERFORMER "Porn Sword Tobacco"
ISRC DEX700703908
INDEX 01 00:00:00
FILE "09 - My Lovely Wife Becky.wav" WAVE
TRACK 09 AUDIO
TITLE "My Lovely Wife Becky"
PERFORMER "Porn Sword Tobacco"
ISRC DEX700703909
INDEX 01 00:00:00
FILE "10 - Do the Astrowaltz.wav" WAVE
TRACK 10 AUDIO
TITLE "Do the Astrowaltz"
PERFORMER "Porn Sword Tobacco"
ISRC DEX700703910
INDEX 01 00:00:00
FILE "11 - Hierarkisk Symmetri och Romantik.wav" WAVE
TRACK 11 AUDIO
TITLE "Hierarkisk Symmetri och Romantik"
PERFORMER "Porn Sword Tobacco"
ISRC DEX700703911
INDEX 01 00:00:00
FILE "12 - Pappa! Min Kдrlek дr Gravid.wav" WAVE
TRACK 12 AUDIO
TITLE "Pappa! Min Kдrlek дr Gravid"
PERFORMER "Porn Sword Tobacco"
ISRC DEX700703912
INDEX 01 00:00:00
FILE "13 - U.S Saloon Props 41,59.wav" WAVE
TRACK 13 AUDIO
TITLE "U.S Saloon Props 41/59"
PERFORMER "Porn Sword Tobacco"
ISRC DEX700703913
INDEX 01 00:00:00
FILE "14 - Vingar av Svдrd.wav" WAVE
TRACK 14 AUDIO
TITLE "Vingar av Svдrd"
PERFORMER "Porn Sword Tobacco"
ISRC DEX700703914
INDEX 01 00:00:00

Год выпуска: 2009
Продолжительность: 00:50:40
Треклист:

01. Welcome (00:56)
02. En Ny Morgon (04:27)
03. I Love Riding My Bicycle (04:48)
04. Sjobodarna Star Tomma Over Jul (01:16)
05. Havet Ar Arligt (04:02)
06. Spectrum Campfire (02:51)
07. Thats Roadrageous! (00:42)
08. The Lavalife (05:01)
09. 2 Windows Down (01:27)
10. Casual Claude (Birthday Mix) (05:15)
11. Den Kalla Handen (00:42)
12. Cave 4b-50 Clicks Northwest (05:12)
13. My Week In Zambia (01:19)
14. Hasten Som Sprang Nar Och Vart Den Ville (04:12)
15. From Plural To Singular (Finite Edit) (03:42)
16. Goodbye (01:23)
17. Untitled (03:25)

Exact Audio Copy V0.99 prebeta 5 from 4. May 2009

EAC extraction logfile from 23. July 2009, 21:44

Porn Store Tobacco / Everything Is Music To The Ear

Used drive : ATAPI DVD A DH16AYH Adapter: 1 ID: 0

Read mode : Secure
Utilize accurate stream : Yes
Defeat audio cache : Yes
Make use of C2 pointers : No

Read offset correction : 6
Overread into Lead-In and Lead-Out : No
Fill up missing offset samples with silence : Yes
Delete leading and trailing silent blocks : No
Null samples used in CRC calculations : Yes
Used interface : Native Win32 interface for Win NT & 2000
Gap handling : Appended to previous track

Used output format : User Defined Encoder
Selected bitrate : 320 kBit/s
Quality : High
Add ID3 tag : No
Command line compressor : C:\Program Files\FLAC\flac.exe
Additional command line options : -V -8 -T "artist=%a" -T "title=%t" -T "album=%g" -T "date=%y" -T "tracknumber=%n" -T "genre=%m" %s

TOC of the extracted CD

Track | Start | Length | Start sector | End sector
---------------------------------------------------------
1 | 0:00.00 | 0:56.14 | 0 | 4213
2 | 0:56.14 | 4:27.37 | 4214 | 24275
3 | 5:23.51 | 4:47.57 | 24276 | 45857
4 | 10:11.33 | 1:15.71 | 45858 | 51553
5 | 11:27.29 | 4:02.17 | 51554 | 69720
6 | 15:29.46 | 2:50.60 | 69721 | 82530
7 | 18:20.31 | 0:41.42 | 82531 | 85647
8 | 19:01.73 | 5:01.07 | 85648 | 108229
9 | 24:03.05 | 1:26.61 | 108230 | 114740
10 | 25:29.66 | 5:15.12 | 114741 | 138377
11 | 30:45.03 | 0:41.56 | 138378 | 141508
12 | 31:26.59 | 5:12.03 | 141509 | 164911
13 | 36:38.62 | 1:18.50 | 164912 | 170811
14 | 37:57.37 | 4:12.24 | 170812 | 189735
15 | 42:09.61 | 3:41.59 | 189736 | 206369
16 | 45:51.45 | 1:22.68 | 206370 | 212587
17 | 47:14.38 | 3:25.37 | 212588 | 227999

Track 1

Filename C:\EACrips\Welcome.wav

Pre-gap length 0:00:02.00

Peak level 49.4 %
Track quality 99.5 %
Test CRC F05CA2FC
Copy CRC F05CA2FC
Track not present in AccurateRip database
Copy OK

Track 2

Filename C:\EACrips\En ny morgon.wav

Peak level 96.1 %
Track quality 99.4 %
Test CRC 4DF905F2
Copy CRC 4DF905F2
Track not present in AccurateRip database
Copy OK

Track 3

Filename C:\EACrips\I love riding my bicycle.wav

Peak level 96.2 %
Track quality 99.4 %
Test CRC 7D68BF87
Copy CRC 7D68BF87
Track not present in AccurateRip database
Copy OK

Track 4

Filename C:\EACrips\Sjobodarna star tomma over jul.wav

Peak level 96.1 %
Track quality 100.0 %
Test CRC 574FC3B1
Copy CRC 574FC3B1
Track not present in AccurateRip database
Copy OK

Track 5

Filename C:\EACrips\Havet ar arligt.wav

Peak level 96.2 %
Track quality 99.3 %
Test CRC 52A8DBA1
Copy CRC 52A8DBA1
Track not present in AccurateRip database
Copy OK

Track 6

Filename C:\EACrips\Spectrum campfire.wav

Peak level 96.1 %
Track quality 99.3 %
Test CRC 5D9F0369
Copy CRC 5D9F0369
Track not present in AccurateRip database
Copy OK

Track 7

Filename C:\EACrips\That's roadrageous!.wav

Pre-gap length 0:00:00.01

Peak level 78.0 %
Track quality 100.0 %
Test CRC 976D7304
Copy CRC 976D7304
Track not present in AccurateRip database
Copy OK

Track 8

Filename C:\EACrips\The lavalife.wav

Peak level 96.2 %
Track quality 100.0 %
Test CRC E56C0BB1
Copy CRC E56C0BB1
Track not present in AccurateRip database
Copy OK

Track 9

Filename C:\EACrips\2 windows down.wav

Peak level 71.2 %
Track quality 100.0 %
Test CRC 9215D6EE
Copy CRC 9215D6EE
Track not present in AccurateRip database
Copy OK

Track 10

Filename C:\EACrips\Casual Claude (birthday mix).wav

Pre-gap length 0:00:00.01

Peak level 96.6 %
Track quality 100.0 %
Test CRC D98F555A
Copy CRC D98F555A
Track not present in AccurateRip database
Copy OK

Track 11

Filename C:\EACrips\Den kalla handen.wav

Pre-gap length 0:00:00.01

Peak level 96.1 %
Track quality 100.0 %
Test CRC 3FDE0237
Copy CRC 3FDE0237
Track not present in AccurateRip database
Copy OK

Track 12

Filename C:\EACrips\Cave 4b-50 clicks northwest.wav

Pre-gap length 0:00:00.01

Peak level 96.2 %
Track quality 100.0 %
Test CRC F02CEFCC
Copy CRC F02CEFCC
Track not present in AccurateRip database
Copy OK

Track 13

Filename C:\EACrips\My week in Zambia.wav

Peak level 75.7 %
Track quality 99.8 %
Test CRC 043A8F51
Copy CRC 043A8F51
Track not present in AccurateRip database
Copy OK

Track 14

Filename C:\EACrips\Hasten som sprang nar och vart den ville.wav

Peak level 96.3 %
Track quality 100.0 %
Test CRC 6BD96BBB
Copy CRC 6BD96BBB
Track not present in AccurateRip database
Copy OK

Track 15

Filename C:\EACrips\From Plural to singular (finite edit).wav

Peak level 96.4 %
Track quality 100.0 %
Test CRC AFD122CE
Copy CRC AFD122CE
Track not present in AccurateRip database
Copy OK

Track 16

Filename C:\EACrips\Goodbye.wav

Peak level 64.1 %
Track quality 100.0 %
Test CRC EE66BCBB
Copy CRC EE66BCBB
Track not present in AccurateRip database
Copy OK

Track 17

Filename C:\EACrips\(Unlisted hidden track).wav

Peak level 96.2 %
Track quality 100.0 %
Test CRC 162FBD9F
Copy CRC 162FBD9F
Track not present in AccurateRip database
Copy OK

None of the tracks are present in the AccurateRip database

No errors occurred

End of status report


REM GENRE Ambient
REM DATE 2009
REM DISCID E00BE011
REM COMMENT "ExactAudioCopy v0.99pb5"
FILE "01. Welcome.flac" WAVE
TRACK 01 AUDIO
TITLE "Welcome"
PERFORMER "Porn Sword Tobacco"
INDEX 01 00:00:00
FILE "02. En ny morgon.flac" WAVE
TRACK 02 AUDIO
TITLE "En ny morgon"
PERFORMER "Porn Sword Tobacco"
INDEX 01 00:00:00
FILE "03. I love riding my bicycle.flac" WAVE
TRACK 03 AUDIO
TITLE "I love riding my bicycle"
PERFORMER "Porn Sword Tobacco"
INDEX 01 00:00:00
FILE "04. Sjobodarna star tomma over jul.flac" WAVE
TRACK 04 AUDIO
TITLE "Sjobodarna star tomma over jul"
PERFORMER "Porn Sword Tobacco"
INDEX 01 00:00:00
FILE "05. Havet ar arligt.flac" WAVE
TRACK 05 AUDIO
TITLE "Havet ar arligt"
PERFORMER "Porn Sword Tobacco"
INDEX 01 00:00:00
FILE "06. Spectrum campfire.flac" WAVE
TRACK 06 AUDIO
TITLE "Spectrum campfire"
PERFORMER "Porn Sword Tobacco"
INDEX 01 00:00:00
FILE "07. That's roadrageous!.flac" WAVE
TRACK 07 AUDIO
TITLE "That's roadrageous!"
PERFORMER "Porn Sword Tobacco"
INDEX 01 00:00:00
FILE "08. The lavalife.flac" WAVE
TRACK 08 AUDIO
TITLE "The lavalife"
PERFORMER "Porn Sword Tobacco"
INDEX 01 00:00:00
FILE "09. 2 windows down.flac" WAVE
TRACK 09 AUDIO
TITLE "2 windows down"
PERFORMER "Porn Sword Tobacco"
INDEX 01 00:00:00
FILE "10. Casual Claude (birthday mix).flac" WAVE
TRACK 10 AUDIO
TITLE "Casual Claude (birthday mix)"
PERFORMER "Porn Sword Tobacco"
INDEX 01 00:00:00
FILE "11. Den kalla handen.flac" WAVE
TRACK 11 AUDIO
TITLE "Den kalla handen"
PERFORMER "Porn Sword Tobacco"
INDEX 01 00:00:00
FILE "12. Cave 4b-50 clicks northwest.flac" WAVE
TRACK 12 AUDIO
TITLE "Cave 4b-50 clicks northwest"
PERFORMER "Porn Sword Tobacco"
INDEX 01 00:00:00
FILE "13. My week in Zambia.flac" WAVE
TRACK 13 AUDIO
TITLE "My week in Zambia"
PERFORMER "Porn Sword Tobacco"
INDEX 01 00:00:00
FILE "14. Hasten som sprang nar och vart den ville.flac" WAVE
TRACK 14 AUDIO
TITLE "Hasten som sprang nar och vart den ville"
PERFORMER "Porn Sword Tobacco"
INDEX 01 00:00:00
FILE "15. From Plural to singular (finite edit).flac" WAVE
TRACK 15 AUDIO
TITLE "From Plural to singular (finite edit)"
PERFORMER "Porn Sword Tobacco"
INDEX 01 00:00:00
FILE "16. Goodbye.flac" WAVE
TRACK 16 AUDIO
TITLE "Goodbye"
PERFORMER "Porn Sword Tobacco"
INDEX 01 00:00:00
FILE "17. (Unlisted hidden track).flac" WAVE
TRACK 17 AUDIO
TITLE "(Unlisted hidden track)"
PERFORMER "Porn Sword Tobacco"
INDEX 01 00:00:00

Год выпуска: 2009
Продолжительность: 00:22:02
Треклист:

01. Boxcutter (03:36)
02. The Bar Is Still Open (01:30)
03. Autopal (05:33)
04. Light Stencil (04:20)
05. Wiods (02:00)
06. You're My Thoughts (05:03)

-----------------------

DON'T MODIFY THIS FILE

-----------------------

PERFORMER: auCDtect Task Manager, ver. 1.5.1RC6 build 1.5.1.7
Copyright (c) 2008-2010 y-soft. All rights reserved
http://y-soft.org

ANALYZER: auCDtect: CD records authenticity detector, version 0.8.2
Copyright (c) 2004 Oleg Berngardt. All rights reserved.
Copyright (c) 2004 Alexander Djourik. All rights reserved.

FILE: 02. The Bar Is Still Open.flac
Size: 5133334 Hash: 7C14C9C365FD245580DFA380E4753832 Accuracy: -m0
Conclusion: CDDA 76%
Signature: 812E1961D1621841DA6D9402FA836381FAFAF29F
FILE: 01. Boxcutter.flac
Size: 15286314 Hash: 0E6BE08D4356123418282FF008E74C88 Accuracy: -m0
Conclusion: CDDA 99%
Signature: F88954171CE171E9C3DA5178331CE5047B989275
FILE: 06. You're My Thoughts.flac
Size: 27115916 Hash: B6518AD97ECFDA545C10E0BECD4213E1 Accuracy: -m0
Conclusion: CDDA 62%
Signature: 04B0AE3206B74DC41D5BD7E0548DBA48AD53CFAA
FILE: 05. Wiods.flac
Size: 11339517 Hash: 15E0C1C316E35F4F58C7DC5310746E04 Accuracy: -m0
Conclusion: MPEG 95%
Signature: A58872112EEF8514E43A504C848E18363C3EBE95
FILE: 04. Light Stencil.flac
Size: 24167140 Hash: EE67327BD9C497C6CE37FD61D850961C Accuracy: -m0
Conclusion: CDDA 100%
Signature: DA1EED864A87D148772055F4AB68E63545943469
FILE: 03. Autopal.flac
Size: 27446084 Hash: 29284275D84D992FF29527E38FF24B06 Accuracy: -m0
Conclusion: CDDA 100%
Signature: 3055103E20A1778B8A66D615B0F6091B9FA22650

Год выпуска: 2014
Продолжительность: 00:16:09
Треклист:

01. Complaints A (07:43)
02. Complaints B (08:26)

-----------------------

DON'T MODIFY THIS FILE

-----------------------

PERFORMER: auCDtect Task Manager, ver. 1.5.1RC6 build 1.5.1.7
Copyright (c) 2008-2010 y-soft. All rights reserved
http://y-soft.org

ANALYZER: auCDtect: CD records authenticity detector, version 0.8.2
Copyright (c) 2004 Oleg Berngardt. All rights reserved.
Copyright (c) 2004 Alexander Djourik. All rights reserved.

FILE: 01. Complaints A.flac
Size: 37424843 Hash: 036AE31B6DA32E78EEA8D92148F5EA62 Accuracy: -m0
Conclusion: CDDA 100%
Signature: F97FF8C33EB2A95A1B7940382097D96BE0E5CF15
FILE: 02. Complaints B.flac
Size: 47940115 Hash: 45556A2D9CF851443D3F14681E023EFF Accuracy: -m0
Conclusion: CDDA 100%
Signature: 5AF0EC5F9697BB886AFAFF92D226AED5FB40C476

Год выпуска: 2014
Продолжительность: 00:19:34
Треклист:

01. SVN & Porn Sword Tobacco - Fresh II (06:26)
02. SVN & Porn Sword Tobacco - Scrub A Tub (02:15)
03. Dynamo Dreesen - High Life Witness (04:59)
04. PG Sounds - Loose (04:30)
05. Unknown Artist - Monday Painter (01:24)

-----------------------

DON'T MODIFY THIS FILE

-----------------------

PERFORMER: auCDtect Task Manager, ver. 1.6.0 RC1 build 1.6.0.1
Copyright (c) 2008-2010 y-soft. All rights reserved
http://y-soft.org

ANALYZER: auCDtect: CD records authenticity detector, version 0.8.2
Copyright (c) 2004 Oleg Berngardt. All rights reserved.
Copyright (c) 2004 Alexander Djourik. All rights reserved.

FILE: A2. SVN & Porn Sword Tobacco - Scrub A Tub.flac
Size: 10272654 Hash: 49C93E6BD35DA0E011914C130357B1B6 Accuracy: -m0
Conclusion: CDDA 100%
Signature: 437226D6178AB9289A82825CF1C1DFDDEBB9A355
FILE: A1. SVN & Porn Sword Tobacco - Fresh II.flac
Size: 34958503 Hash: 00475E84C8DB63E4E2DDC19A9987C70A Accuracy: -m0
Conclusion: CDDA 100%
Signature: 37F7E988D596892E4479B9081FDABFFF95DD14B3
FILE: B3. Unknown Artist - Monday Painter.flac
Size: 7558245 Hash: FCF8A17348D6AD68C017E5E334E584C6 Accuracy: -m0
Conclusion: CDDA 100%
Signature: 7E1561A2BCA02DB414F1E02A56ECE8E434CB3D37
FILE: B2. PG Sounds - Loose.flac
Size: 20666191 Hash: BF077D42E1113F67EECEECE36D8A9B3F Accuracy: -m0
Conclusion: CDDA 100%
Signature: 78AD378B4B584839C1924059092BD4902AA57546
FILE: B1. Dynamo Dreesen - High Life Witness.flac
Size: 27730927 Hash: F706EA2ED753480D984DF418EA09F7F9 Accuracy: -m0
Conclusion: CDDA 43%
Signature: 85CDDF4B6066680BCC9F0C05DEEE44EBCE2CE41D

Roksan Radius 5 (Lacquered Maple Veneer) with AT440MLa
Cambridge Audio 640P
Chord Crimson Plus Interconnects
Motu 828mk3
EQ Type I10.02 kHz-7.60 dBQ 2.19
Sound Forge
Год выпуска: 2015
Продолжительность: 00:21:56
Треклист:

01. Untitled (11:15)
02. Untitled (07:02)
03. Untitled (03:39)

-----------------------

DON'T MODIFY THIS FILE

-----------------------

PERFORMER: auCDtect Task Manager, ver. 1.5.1RC6 build 1.5.1.7
Copyright (c) 2008-2010 y-soft. All rights reserved
http://y-soft.org

ANALYZER: auCDtect: CD records authenticity detector, version 0.8.2
Copyright (c) 2004 Oleg Berngardt. All rights reserved.
Copyright (c) 2004 Alexander Djourik. All rights reserved.

FILE: 03. Untitled.flac
Size: 17834043 Hash: 0CB3802C2B8334F5B0149B11BCDCB637 Accuracy: -m0
Conclusion: CDDA 100%
Signature: 306E1BBCBF38D0417B9467EE4E6E87146AC19233
FILE: 02. Untitled.flac
Size: 33859785 Hash: 5DB85612C8F0B42F93DE37D327544BBC Accuracy: -m0
Conclusion: CDDA 100%
Signature: BE643DA7E26A4F72ED7973526B2CCB0BE8259340
FILE: 01. Untitled.flac
Size: 56280063 Hash: E57A50FD457D1BCD963CC7F0459C3324 Accuracy: -m0
Conclusion: CDDA 100%
Signature: 6F63D3D85BC22D58F826AEEBB65E4DC0A6175DA9

Год выпуска: 2015
Продолжительность: 00:41:51
Треклист:

01. Magnifik Botanik (09:19)
02. Vildvuxen Galax w/ SVN (09:33)
03. Jobbet (09:11)
04. Kristallisering (06:50)
05. Enkel Disko For Hand (06:58)

-----------------------

DON'T MODIFY THIS FILE

-----------------------

PERFORMER: auCDtect Task Manager, ver. 1.5.1RC6 build 1.5.1.7
Copyright (c) 2008-2010 y-soft. All rights reserved
http://y-soft.org

ANALYZER: auCDtect: CD records authenticity detector, version 0.8.2
Copyright (c) 2004 Oleg Berngardt. All rights reserved.
Copyright (c) 2004 Alexander Djourik. All rights reserved.

FILE: 05. Enkel Disko För Hand.flac
Size: 36829737 Hash: 1DF7D15DDA7A88094A56B23D83A74B94 Accuracy: -m0
Conclusion: MPEG 90%
Signature: 7129AE23FD6B3961229B5DF2221704A93D8613A1
FILE: 04. Kristallisering.flac
Size: 43458762 Hash: FDD29335596A82715F1FD53F888EE370 Accuracy: -m0
Conclusion: CDDA 100%
Signature: 4BF91DD0FFE0BE9CC3ECEC5EB2A14EBA6153BD89
FILE: 03. Jobbet.flac
Size: 46860727 Hash: E5E06C8B47F52A8C2E3BB6A24CA231C0 Accuracy: -m0
Conclusion: CDDA 54%
Signature: D63DEBA214CE108ECEAA3F73464CD9EEAA7F6E13
FILE: 02. Vildvuxen Galax w, SVN.flac
Size: 52672928 Hash: 70DD2887E4EBCBA2325897ACC0C764E7 Accuracy: -m0
Conclusion: CDDA 100%
Signature: 4B9C100F91188E5A317CC049390935554550A974
FILE: 01. Magnifik Botanik.flac
Size: 50740000 Hash: 439FADCAE85688CF93E0A6E4FE9CBFD6 Accuracy: -m0
Conclusion: CDDA 100%
Signature: 2526837C41F7EFBBADEB4F39531419F1704F3275

Год выпуска: 2016
Продолжительность: 00:31:34
Треклист:

01. Recording 1 (09:16)
02. Recording 2 (08:06)
03. Recording 3 (06:48)
04. Recording 4 (07:24)

-----------------------

DON'T MODIFY THIS FILE

-----------------------

PERFORMER: auCDtect Task Manager, ver. 1.5.1RC6 build 1.5.1.7
Copyright (c) 2008-2010 y-soft. All rights reserved
http://y-soft.org

ANALYZER: auCDtect: CD records authenticity detector, version 0.8.2
Copyright (c) 2004 Oleg Berngardt. All rights reserved.
Copyright (c) 2004 Alexander Djourik. All rights reserved.

FILE: 04. Recording 4.flac
Size: 37046705 Hash: 9227CFD87E9E0915DB53B081040D2210 Accuracy: -m0
Conclusion: CDDA 100%
Signature: F45D874B1DF9CB18B89A670DCE5CC6919F4FB17F
FILE: 03. Recording 3.flac
Size: 32213127 Hash: 7AFA0A561FF9E3850AEF6C65633CA693 Accuracy: -m0
Conclusion: CDDA 100%
Signature: 1E7F6ED456250372EDD976CFD5B59AB530077A75
FILE: 02. Recording 2.flac
Size: 45565873 Hash: E2E8AA2E960879435FA01644D06A921C Accuracy: -m0
Conclusion: CDDA 100%
Signature: 4AFFB5A4A6E2E431F60FABE9581BEFAB658801B7
FILE: 01. Recording 1.flac
Size: 50420580 Hash: 76BA7930B406FC23400C70E7CDFA096E Accuracy: -m0
Conclusion: CDDA 100%
Signature: 41C97C8FA254311669E68B3DFF7A5C5F11C41674

Время раздачи: 12/7
[NNMClub.to]_Porn Sword Tobacco FLAC.torrent
 Торрент:   Зарегистрирован
 
Примагнититься
Free Leech
Зарегистрируйтесь и скачайте торрент!
28,8 KB
 Зарегистрирован:   16 Ноя 2016 17:03:28
 Размер:   1,71 GB  (
 Рейтинг:    (Голосов: 7)
 Поблагодарили:   38
 Проверка:   Оформление проверено модератором 16 Ноя 2016 17:03:52
Как cкачать  ·  Как раздать  ·  Правильно оформить  ·  Поднять ратио!  
дени де вито
Стаж: 6 лет 9 мес.
Сообщений: 23
Ratio: 3,47
35.06%
russia.gif
Спасибо автору раздачи )
vilator ®
Модератор Музыки
RG Music
 
Стаж: 7 лет 11 мес.
Сообщений: 5696
Ratio: 125,941
Поблагодарили: 111896
100%
Откуда: Minsk
pirates.png
Обновление, добавлены:
2014 My House Is Not Your House (Vinyl)
2016 Recording 1-4 (PST & SVN) (Vinyl)
Показать сообщения:   
Начать новую тему   Ответить на тему    Торрент-трекер NNM-Club -> Electronic -> IDM (Lossless) Часовой пояс: GMT + 3
Страница 1 из 1