Интеллигентный торрент-трекер
canvas not supported
Нас вместе: 4 348 380

Варкрафт / Warcraft (2016) BDRip [H.264/720p] [EN / EN Sub]


 
 
RSS
Начать новую тему   Ответить на тему    Торрент-трекер NNM-Club -> Зарубежное кино -> Фильмы в оригинале (HD)
Автор Сообщение
smaster67 ®
Модератор Видео
Покровитель талантов Uploader 300+
Стаж: 7 лет 10 мес.
Сообщений: 6629
Ratio: 198,806
Поблагодарили: 192397
100%
Варкрафт / Warcraft (2016) BDRip [H.264/720p] [EN / EN Sub]

Производство: Китай, Канада, Япония, США
Жанр: фэнтези, боевик, приключения

Режиссер: Дункан Джонс
Актеры: Трэвис Фиммел, Пола Пэттон, Бен Фостер, Доминик Купер, Тоби Кеббелл, Бен Шнетцер, Роберт Казински, Клэнси Браун, Дэниэл Ву, Рут Негга, Анна Галвин, Каллум Кит Ренни

Описание:
Веками магия и неприступные стены защищали людей от любых напастей. Но древнее зло, побежденное и забытое тысячелетия назад, пробудилось.
В самом сердце королевства открылся темный портал, и раса невиданных существ наводнила земли Азерота. Так начались события, призванные навсегда изменить судьбу этого мира.



Продолжительность: 02:03:07
Качество видео: BDRip
Перевод: Отсутствует
Язык озвучки: Английский
Язык субтитров: английский
Вид субтитров: Вшитые

Видео: AVC, 1280x526 (2.40:1), 4598 kbps, 23,976 fps, 0,285 bpp
Аудио: английский / AC3 / 5.1 / 48 kHz / 640 kbps /
Код:
General
Unique ID                             Warcraft.2016.720p.Bluray.X264-EVO\Warcraft.2016.720p.Bluray.X264-EVO.mkv
Format                                   : Matroska
Format version                           : Version 4 / Version 2
File size                                : 4.60 GiB
Duration                                 : 2 h 3 min
Overall bit rate                         : 5 345 kb/s
Movie name                               : EVO
Encoded date                             : UTC 2016-09-09 20:28:06
Writing application                      : mkvmerge v6.7.0 ('Back to the Ground') 64bit built on Jan  8 2014 15:10:52
Writing library                          : libebml v1.3.0 + libmatroska v1.4.1
Attachments                              : F1_T2_Video - .rar

Video
ID                                       : 1
Format                                   : AVC
Format/Info                              : Advanced Video Codec
Format profile                           : High@L4.1
Format settings, CABAC                   : Yes
Format settings, ReFrames                : 5 frames
Codec ID                                 : V_MPEG4/ISO/AVC
Duration                                 : 2 h 3 min
Bit rate                                 : 4 598 kb/s
Width                                    : 1 280 pixels
Height                                   : 526 pixels
Display aspect ratio                     : 2.40:1
Original display aspect ratio            : 2.40:1
Frame rate mode                          : Constant
Frame rate                               : 23.976 (24000/1001) FPS
Color space                              : YUV
Chroma subsampling                       : 4:2:0
Bit depth                                : 8 bits
Scan type                                : Progressive
Bits/(Pixel*Frame)                       : 0.285
Stream size                              : 3.95 GiB (86%)
Writing library                          : x264 core 148 r2692 64f4e24
Language                                 : English
Default                                  : Yes
Forced                                   : No

Audio
ID                                       : 2
Format                                   : AC-3
Format/Info                              : Audio Coding 3
Mode extension                           : CM (complete main)
Format settings, Endianness              : Big
Codec ID                                 : A_AC3
Duration                                 : 2 h 3 min
Bit rate mode                            : Constant
Bit rate                                 : 640 kb/s
Channel(s)                               : 6 channels
Channel positions                        : Front: L C R, Side: L R, LFE
Sampling rate                            : 48.0 kHz
Frame rate                               : 31.250 FPS (1536 spf)
Compression mode                         : Lossy
Stream size                              : 564 MiB (12%)
Language                                 : English
Default                                  : Yes
Forced                                   : No

Text
ID                                       : 3
Format                                   : UTF-8
Codec ID                                 : S_TEXT/UTF8
Codec ID/Info                            : UTF-8 Plain Text
Title                                    : NON UDENTI
Language                                 : English
Default                                  : No
Forced                                   : No

Menu
00:00:00.000                             : en:00:00:00.000
00:09:26.483                             : en:00:09:26.483
00:15:49.407                             : en:00:15:49.407
00:22:36.146                             : en:00:22:36.146
00:29:16.171                             : en:00:29:16.171
00:38:43.321                             : en:00:38:43.321
00:46:44.093                             : en:00:46:44.093
00:53:02.679                             : en:00:53:02.679
00:56:17.332                             : en:00:56:17.332
01:02:43.927                             : en:01:02:43.927
01:07:48.314                             : en:01:07:48.314
01:12:24.549                             : en:01:12:24.549
01:17:13.045                             : en:01:17:13.045
01:22:45.669                             : en:01:22:45.669
01:26:32.145                             : en:01:26:32.145
01:32:29.669                             : en:01:32:29.669
01:40:25.102                             : en:01:40:25.102
01:47:38.118                             : en:01:47:38.118
01:51:12.833                             : en:01:51:12.833
01:53:58.832                             : en:01:53:58.832

Скриншоты:



Время раздачи: с 13:00 до 23:00
[NNMClub.to]_Warcraft.2016.720p.Bluray.X264-EVO.mkv.torrent
 Торрент: Серебряная раздча  Зарегистрирован
 
Примагнититься
Free Leech
Зарегистрируйтесь и скачайте торрент!
23,2 KB
 Зарегистрирован:   10 Сен 2016 00:28:59
 Размер:   4,6 GB  (
 Рейтинг:   4,7 (Голосов: 11)
 Поблагодарили:   60
 Проверка:   Оформление проверено модератором 10 Сен 2016 00:29:31
Как cкачать  ·  Как раздать  ·  Правильно оформить  ·  Поднять ратио!  
Загрузка...
Показать сообщения:   
Начать новую тему   Ответить на тему    Торрент-трекер NNM-Club -> Зарубежное кино -> Фильмы в оригинале (HD) Часовой пояс: GMT + 3
Страница 1 из 1